<?xml version="1.0" standalone="no"?>
<!DOCTYPE svg PUBLIC "-//W3C//DTD SVG 1.1//EN" "http://www.w3.org/Graphics/SVG/1.1/DTD/svg11.dtd" >
<svg xmlns="http://www.w3.org/2000/svg">
<metadata>
This is a custom SVG webfont generated by Font Squirrel.
</metadata>
<defs>
<font id="AllerItalic" horiz-adv-x="1228" >
<font-face units-per-em="2048" ascent="1638" descent="-410" />
<missing-glyph horiz-adv-x="460" />
<glyph unicode=" "  horiz-adv-x="460" />
<glyph unicode="&#x09;" horiz-adv-x="460" />
<glyph unicode="&#xa0;" horiz-adv-x="460" />
<glyph unicode="!" horiz-adv-x="567" d="M172 0q0 117 39 227q29 4 55.5 6.5t55.5 2.5q27 0 54 -2.5t52 -6.5q0 -59 -10 -113.5t-27 -113.5q-29 -4 -56.5 -6t-53.5 -2q-29 0 -56.5 2t-52.5 6zM264 440l172 1033q55 6 107 6q53 0 112 -6l-196 -1033q-53 -6 -99 -6q-51 0 -96 6z" />
<glyph unicode="&#x22;" horiz-adv-x="796" d="M639 909l98 561q23 4 49.5 6.5t51.5 2.5q55 0 94 -9l-97 -561q-49 -6 -98 -6q-55 0 -98 6zM250 909l98 561q23 4 49.5 6.5t51.5 2.5q55 0 94 -9l-97 -561q-49 -6 -98 -6q-55 0 -98 6z" />
<glyph unicode="#" horiz-adv-x="1462" d="M178 428l6 55q4 27 10.5 52.5t12.5 54.5h258l88 338h-246l9 81q5 44 20 78h260l84 326q29 4 50.5 5t47.5 1h42q22 0 44 -4l-84 -328h332l84 326q29 4 51.5 5t44.5 1h44q22 0 46 -4l-84 -328h232l-11.5 -78.5t-17.5 -80.5h-244l-88 -338h230q0 -76 -27 -162h-244l-94 -369 q-29 -4 -51 -5t-47 -1q-20 0 -43 1t-43 5l94 369h-332l-94 -369q-29 -4 -50.5 -5t-47.5 -1q-45 0 -90 6l48 185l46 184h-246zM653 590h332l86 338h-332z" />
<glyph unicode="$" d="M150 43q8 45 21 91t36 93q74 -31 147.5 -49t171.5 -18q162 0 255 71.5t93 194.5q0 90 -57 148.5t-174 119.5q-66 35 -121 71t-94 79t-60.5 95t-21.5 124q0 170 112.5 278.5t317.5 128.5l31 183q33 8 72 8q16 0 35.5 -2t35.5 -6l-30 -176q86 -4 153.5 -21.5t128.5 -40.5 q-6 -43 -20.5 -88t-40.5 -86q-53 27 -124 45.5t-163 18.5q-59 0 -112.5 -11.5t-92.5 -37t-61.5 -64.5t-22.5 -94q0 -78 56.5 -132.5t166.5 -113.5q76 -41 135.5 -80t99.5 -84t60.5 -98t20.5 -125q0 -90 -30 -169t-87 -141.5t-140 -104.5t-190 -60l-39 -232q-33 -8 -71 -8 q-41 0 -72 8l37 217h-8q-98 0 -194.5 19.5t-159.5 48.5z" />
<glyph unicode="%" horiz-adv-x="2019" d="M448 2l1133 1448q25 4 55.5 6t57.5 2t55.5 -2t50.5 -6l-1134 -1448q-29 -4 -53.5 -6t-49.5 -2q-27 0 -58.5 2t-56.5 6zM1266 317q0 96 26.5 190.5t80.5 170t136 122t193 46.5q80 0 139 -26t97 -71t56.5 -108.5t18.5 -137.5q0 -102 -28.5 -196t-84 -168t-137.5 -118 t-188 -44q-160 0 -234.5 96.5t-74.5 243.5zM1456 323q0 -199 137 -198q61 0 104.5 35.5t71 91t41 120t13.5 121.5q0 203 -142 203q-61 0 -103 -37t-69.5 -92t-40 -121t-12.5 -123zM234 944q0 96 26.5 190.5t80.5 170t136 122t193 46.5q80 0 139 -26t97 -71t56.5 -108.5 t18.5 -137.5q0 -102 -28.5 -196t-84 -168t-137.5 -118t-188 -44q-160 0 -234.5 96.5t-74.5 243.5zM424 950q0 -199 137 -198q61 0 104.5 35.5t71 91t41 120t13.5 121.5q0 203 -142 203q-61 0 -103 -37t-69.5 -92t-40 -121t-12.5 -123z" />
<glyph unicode="&#x26;" horiz-adv-x="1478" d="M186 377q0 86 26 160.5t71 136t105.5 106.5t131.5 70q-23 12 -50.5 32.5t-50 51.5t-37.5 73t-15 95q0 98 41 172t106.5 123t148 73.5t168.5 24.5q70 0 135.5 -9t123.5 -32q-6 -45 -17.5 -82t-34.5 -74q-51 16 -100 25.5t-109 9.5q-111 0 -182.5 -57t-71.5 -162 q0 -92 60.5 -132t142.5 -40h408q10 53 18 108.5t8 114.5v33q41 20 98.5 30.5t98.5 10.5q2 -18 3 -36.5t1 -39.5q0 -63 -16 -157l-13 -64h209q-4 -45 -11 -84t-19 -82h-207l-47 -264q-51 -283 -209 -410t-430 -127q-106 0 -194.5 24t-153 73t-100.5 125t-36 180zM414 401 q0 -113 68.5 -179t215.5 -66q111 0 183.5 29.5t121 83t74 126t39.5 156.5l39 225h-348q-184 0 -288.5 -102.5t-104.5 -272.5z" />
<glyph unicode="'" horiz-adv-x="407" d="M250 909l98 561q23 4 49.5 6.5t51.5 2.5q55 0 94 -9l-97 -561q-49 -6 -98 -6q-55 0 -98 6z" />
<glyph unicode="(" horiz-adv-x="677" d="M250 262q0 127 18.5 260t50 263t74.5 253t92.5 227.5t101.5 187.5t103 134q16 4 40 6t56 2q29 0 56.5 -2t50.5 -6q-66 -92 -142.5 -225t-142 -302t-108.5 -370t-43 -428q0 -115 10 -211t25.5 -173t32 -132t28.5 -86q-27 -4 -54.5 -6t-56.5 -2q-27 0 -50 2t-40 6 q-41 96 -71.5 252.5t-30.5 349.5z" />
<glyph unicode=")" horiz-adv-x="692" d="M-16 -340q66 92 141.5 224t141 300t108.5 370t43 429q0 115 -10.5 212t-25.5 174t-31.5 132t-28.5 86q27 4 54 6t56 2q27 0 49.5 -2t38.5 -6q41 -96 73 -253.5t32 -350.5q0 -190 -40 -392t-103.5 -383t-142.5 -325.5t-155 -222.5q-23 -4 -45 -6t-51 -2t-56.5 2t-47.5 6z " />
<glyph unicode="*" horiz-adv-x="974" d="M260 1126q20 61 64 121l243 -67q-14 -41 -32.5 -79t-40.5 -73zM319 762l183 223q29 -16 58.5 -39.5t53.5 -52.5l-206 -207q-27 16 -50 33.5t-39 42.5zM614 1206l64 267q31 6 63 6q29 0 64 -6l-31 -267q-23 -4 -42 -5t-40 -1q-20 0 -40 1t-38 5zM662 893q72 57 145 92 l104 -223q-27 -25 -55.5 -42.5t-60.5 -33.5zM811 1163v17l268 67q18 -49 19 -104v-17l-267 -98q-10 31 -15 65.5t-5 69.5z" />
<glyph unicode="+" d="M285 629q0 41 6 87t22 93h340l66 373q23 4 46 6t48 2q23 0 47.5 -2t46.5 -6l-65 -373h336q0 -45 -6.5 -88t-22.5 -92h-340l-66 -373q-41 -8 -94 -8q-25 0 -48 2t-46 6l66 373h-336z" />
<glyph unicode="," horiz-adv-x="483" d="M23 -229l194 452q25 6 50.5 8t49.5 2q27 0 53.5 -2t49.5 -8l-201 -452q-27 -4 -52.5 -6.5t-47.5 -2.5q-55 1 -96 9z" />
<glyph unicode="-" horiz-adv-x="712" d="M199 496q4 96 32 188h517q0 -43 -9.5 -94t-23.5 -94h-516z" />
<glyph unicode="." horiz-adv-x="481" d="M125 0q0 57 11 113.5t28 113.5q29 4 57.5 6.5t57.5 2.5t57.5 -2.5t54.5 -6.5q0 -59 -10 -113.5t-27 -113.5q-33 -4 -60.5 -6t-55.5 -2q-29 0 -56.5 2t-56.5 6z" />
<glyph unicode="/" horiz-adv-x="761" d="M47 0l731 1473q47 8 101 8q25 0 52 -2t52 -6l-733 -1473q-27 -4 -55.5 -6t-53.5 -2q-23 0 -47 2t-47 6z" />
<glyph unicode="0" d="M190 449q0 166 42 325.5t124 285.5t203 203.5t279 77.5q121 0 202.5 -40.5t131 -108.5t71 -153t21.5 -173q0 -166 -42 -325.5t-124 -285.5t-203 -203t-279 -77q-121 0 -202.5 41t-131 107.5t-71 152t-21.5 173.5zM403 442q0 -55 11.5 -107t38 -92t70.5 -64.5t112 -24.5 q96 0 173 61t131 161.5t83 230.5t29 265q0 57 -11.5 109.5t-38 92.5t-70.5 63.5t-112 23.5q-98 0 -175 -60.5t-130 -160.5t-82 -230.5t-29 -267.5z" />
<glyph unicode="1" d="M250 0q0 43 8 90t21 84h315l149 862l-286 -129q-25 41 -40.5 81t-19.5 83l568 260h39l-205 -1157h297q0 -41 -8.5 -87t-20.5 -87h-817z" />
<glyph unicode="2" d="M115 25l454 450l137 138q62 65 106 127.5t69.5 125t25.5 127.5q0 76 -51 122t-162 46q-88 0 -158.5 -24.5t-138.5 -53.5q-39 76 -43 172q78 31 171 58.5t210 27.5q186 0 292 -85t106 -238q0 -86 -30 -164t-81 -152.5t-119.5 -147.5t-148.5 -148l-236 -228h539 q0 -45 -9.5 -92t-21.5 -86h-903q-4 17 -8 25z" />
<glyph unicode="3" d="M109 -78q10 41 27.5 84t39.5 84q59 -29 142 -46t163 -17q82 0 153 22.5t123 67.5t82.5 110.5t30.5 151.5q0 63 -21.5 105t-56 68t-81.5 36t-99 10q-41 0 -84 -3t-86 -13l-14 30l440 527h-518q0 45 9.5 93t21.5 89h817l10 -25l-467 -555q176 -10 261 -107t85 -243 q0 -127 -47 -227.5t-130 -170t-194.5 -106.5t-238.5 -37q-92 0 -191 17.5t-177 54.5z" />
<glyph unicode="4" d="M117 182l762 1178q47 -6 92 -26.5t76 -49.5l-609 -944h393l72 405q23 4 51.5 6.5t53.5 2.5q23 0 50 -2t48 -7l-72 -405h178q0 -45 -8 -93t-22 -87h-178l-52 -281q-23 -4 -51.5 -5t-50.5 -1q-25 0 -52.5 1t-47.5 5l51 281h-674z" />
<glyph unicode="5" d="M133 -86q10 43 26.5 89t39.5 85q59 -23 121.5 -41t154.5 -18q80 0 151.5 22.5t126 68.5t86 115.5t31.5 161.5q0 102 -62.5 158.5t-191.5 56.5q-78 0 -135 -10t-104 -29l-21 23l156 725h672q0 -45 -9.5 -93t-21.5 -89h-485l-78 -371q39 8 71.5 10t55.5 2q92 0 161.5 -27.5 t117.5 -74.5t73 -111.5t25 -140.5q0 -139 -51.5 -245.5t-138.5 -180.5t-201.5 -112t-241.5 -38q-98 0 -180 17.5t-148 46.5z" />
<glyph unicode="6" d="M219 422q0 186 61.5 368.5t181.5 331t296 247.5t407 122q12 -47 13 -96q0 -16 -1 -31.5t-6 -44.5q-121 -10 -226 -48t-191 -102.5t-149.5 -155.5t-100.5 -208q53 63 138 107t204 44q76 0 140.5 -23.5t111.5 -69.5t73.5 -114.5t26.5 -160.5q0 -139 -46 -253t-124 -194 t-180.5 -123t-214.5 -43q-109 0 -187.5 34t-129 93.5t-74 141.5t-23.5 178zM434 387q0 -98 52.5 -167.5t166.5 -69.5q80 0 142.5 35.5t105.5 94t64.5 132t21.5 147.5q0 115 -57.5 170t-165.5 55q-63 0 -122.5 -27.5t-106 -79.5t-74 -125t-27.5 -165z" />
<glyph unicode="7" d="M281 -63l708 1202h-651q0 43 8 95t23 87h936l8 -16l-850 -1459q-63 16 -104 36t-78 55z" />
<glyph unicode="8" d="M188 315q0 82 30 153t80 129t117.5 104.5t143.5 80.5q-31 18 -61.5 43t-56 61t-42 81t-16.5 104q0 84 38 156.5t103.5 127t153.5 86.5t186 32q76 0 144.5 -18.5t120 -57.5t82 -96.5t30.5 -135.5q0 -68 -23.5 -126t-63.5 -107t-93 -87t-115 -67q45 -25 86 -55.5t73 -72.5 t50.5 -94t18.5 -118q0 -109 -45.5 -194.5t-121 -145t-176 -91.5t-208.5 -32q-90 0 -169 18.5t-138.5 58.5t-93.5 105.5t-34 157.5zM406 346q0 -104 64.5 -151.5t168.5 -47.5q74 0 133 21.5t100 59.5t63.5 90.5t22.5 111.5q0 96 -67.5 160.5t-165.5 105.5q-68 -23 -126 -57.5 t-101 -79.5t-67.5 -98.5t-24.5 -114.5zM586 1071q0 -47 20.5 -83t50 -60.5t63.5 -41t60 -26.5q121 43 189.5 111.5t68.5 171.5q0 86 -56 127t-132 41q-63 0 -112.5 -19.5t-83 -52.5t-51 -76t-17.5 -92z" />
<glyph unicode="9" d="M246 735q0 137 45 248t121.5 189.5t178 121.5t212.5 43q109 0 187.5 -33.5t129.5 -93t76 -140.5t25 -177q0 -117 -23.5 -239t-73 -237.5t-126 -218t-182 -182t-243 -130t-307.5 -60.5q-12 49 -12 108q0 35 6 66q252 31 430 153.5t250 360.5q-53 -66 -139 -109t-209 -43 q-74 0 -136.5 26t-109.5 74t-73.5 116.5t-26.5 156.5zM457 758q0 -117 57 -171.5t162 -54.5q63 0 123.5 28t107.5 78t76 124t29 166q0 49 -13.5 91t-41 73.5t-68.5 50t-98 18.5q-82 0 -144.5 -33.5t-104.5 -91t-63.5 -130t-21.5 -148.5z" />
<glyph unicode=":" horiz-adv-x="481" d="M258 758q0 57 11 113.5t28 113.5q29 4 57.5 6.5t57.5 2.5t57.5 -2.5t54.5 -6.5q0 -59 -10 -113.5t-27 -113.5q-33 -4 -60.5 -6t-55.5 -2q-29 0 -56.5 2t-56.5 6zM125 0q0 57 11 113.5t28 113.5q29 4 57.5 6.5t57.5 2.5t57.5 -2.5t54.5 -6.5q0 -59 -10 -113.5t-27 -113.5 q-33 -4 -60.5 -6t-55.5 -2q-29 0 -56.5 2t-56.5 6z" />
<glyph unicode=";" horiz-adv-x="483" d="M-16 -229l194 452q25 6 50.5 8t49.5 2q27 0 53.5 -2t49.5 -8l-201 -452q-27 -4 -52.5 -6.5t-47.5 -2.5q-55 1 -96 9zM281 758q0 57 11 113.5t28 113.5q29 4 57.5 6.5t57.5 2.5t57.5 -2.5t54.5 -6.5q0 -59 -10 -113.5t-27 -113.5q-33 -4 -60.5 -6t-55.5 -2q-29 0 -56.5 2 t-56.5 6z" />
<glyph unicode="&#x3c;" d="M317 596q0 121 37 217l895 348q0 -57 -10 -115.5t-22 -93.5l-699 -254l608 -258q0 -53 -11 -104t-25 -86z" />
<glyph unicode="=" d="M258 422q0 84 29 180h852q0 -45 -6.5 -89t-22.5 -91h-852zM326 817q0 41 6 86t24 94h852q0 -41 -6 -86t-24 -94h-852z" />
<glyph unicode="&#x3e;" d="M254 248q0 20 2 48t7 57.5t11.5 57t12.5 46.5l698 258l-606 252q0 47 8 96t27 96l774 -346q0 -47 -9.5 -107.5t-29.5 -109.5z" />
<glyph unicode="?" horiz-adv-x="954" d="M299 1430q94 35 175 45t161 10q102 0 181 -25.5t131 -72t79 -108.5t27 -136q0 -90 -34 -169t-92.5 -142.5t-134 -110.5t-157.5 -72l-35 -211q-53 -6 -98 -6q-25 0 -49.5 1t-46.5 5l57 332l76 21q57 16 110 44.5t94 69.5t64.5 93.5t23.5 115.5q0 94 -65.5 143.5 t-175.5 49.5q-78 0 -134.5 -13.5t-121.5 -36.5q-14 35 -24.5 83.5t-10.5 89.5zM311 2q2 59 11.5 116.5t29.5 110.5q29 4 57.5 7.5t57.5 3.5q27 0 55.5 -3.5t57.5 -7.5q-2 -61 -11.5 -116.5t-29.5 -110.5q-29 -4 -57.5 -6t-57.5 -2t-56.5 2t-56.5 6z" />
<glyph unicode="@" horiz-adv-x="2023" d="M201 438q0 184 65.5 371.5t200.5 340.5t343 249t495 96q156 0 292 -42t236 -128t158.5 -216t58.5 -304q0 -127 -38 -250t-109.5 -221t-174 -158.5t-231.5 -60.5q-72 0 -128 15t-97 48q-59 -35 -133 -55.5t-164 -20.5q-141 0 -228.5 87t-87.5 239q0 139 47.5 257t127 203 t187 133t228.5 48q82 0 157 -12.5t146 -34.5l-147 -731q20 -16 50 -21.5t58 -5.5q86 0 152 50.5t112 129t69.5 174t23.5 187.5q0 260 -153.5 395t-432.5 135q-213 0 -379 -74.5t-279.5 -199.5t-173 -285t-59.5 -330q0 -160 46 -274.5t126 -187t188.5 -107.5t233.5 -35 q98 0 187.5 15.5t160.5 42.5q12 -29 23.5 -65t21.5 -79q-72 -35 -183.5 -52t-244.5 -17q-156 0 -292 45t-238.5 138t-161.5 234t-59 334zM862 467q0 -104 46 -153.5t139 -49.5q47 0 85.5 8.5t86.5 30.5l114 590q-27 6 -49 9t-47 3q-82 0 -150.5 -33.5t-118.5 -93t-78 -139.5 t-28 -172z" />
<glyph unicode="A" horiz-adv-x="1226" d="M72 0l669 1473q27 4 65 5t66 1q31 0 63 -1t56 -5l201 -1473q-59 -6 -119 -6q-49 0 -100 6l-39 346h-496l-149 -346q-49 -6 -111 -6q-29 0 -56 1t-50 5zM518 526h395l-84 711z" />
<glyph unicode="B" horiz-adv-x="1185" d="M190 0l259 1473q51 8 138 15t163 7q104 0 189 -17.5t145.5 -56.5t94 -98t33.5 -145q0 -76 -24.5 -141.5t-65.5 -116t-93 -84t-107 -48.5q111 -18 182.5 -100t71.5 -209q0 -135 -52.5 -231t-142.5 -156.5t-210 -88.5t-255 -28q-78 0 -163 7.5t-163 17.5zM426 160 q25 -4 59.5 -6t73.5 -2q68 0 138.5 13t129 48t95 96.5t36.5 157.5q0 61 -20 103t-57 68t-88.5 37t-112.5 11h-160zM549 858h143q137 0 221 76t84 211q0 102 -63.5 144t-175.5 42q-35 0 -70 -2t-57 -6z" />
<glyph unicode="C" horiz-adv-x="1181" d="M231 545q0 184 51.5 356t153 304t251 212t345.5 80q109 0 185.5 -15.5t130.5 -37.5q-10 -47 -23.5 -86t-40.5 -86q-59 23 -116.5 33t-129.5 10q-152 0 -262 -63.5t-181 -169t-104.5 -240.5t-33.5 -279q0 -199 97 -301t282 -102q78 0 144.5 14t131.5 43q39 -74 45 -174 q-41 -18 -88 -30.5t-96 -20.5t-97.5 -12.5t-87.5 -4.5q-268 0 -412.5 152t-144.5 418z" />
<glyph unicode="D" horiz-adv-x="1400" d="M190 0l259 1473q33 4 73.5 8t83.5 7t84 5t78 2q172 0 297 -43t205 -122t117.5 -189.5t37.5 -245.5q0 -195 -56 -361.5t-166.5 -291.5t-275.5 -196t-382 -71q-111 0 -202.5 7.5t-152.5 17.5zM430 172q27 -4 75 -7t93 -3q141 0 254 53t190.5 147.5t118.5 223.5t41 280 q0 217 -100.5 332t-325.5 115q-41 0 -76.5 -3t-70.5 -7z" />
<glyph unicode="E" horiz-adv-x="1073" d="M188 0l258 1473h781q0 -92 -33 -185h-569l-74 -420h455q0 -94 -33 -184h-455l-44 -251l-44 -251h586l-10.5 -92t-22.5 -90h-795z" />
<glyph unicode="F" horiz-adv-x="1015" d="M188 0l258 1473h744q-6 -53 -10 -95.5t-23 -89.5h-532l-76 -432h446q-4 -96 -32 -184h-447l-117 -672q-53 -6 -106 -6q-29 0 -55.5 1t-49.5 5z" />
<glyph unicode="G" horiz-adv-x="1345" d="M231 545q0 188 50.5 360t152 304t251 210t349.5 78q102 0 181 -16.5t133 -38.5q-10 -47 -23.5 -86t-40.5 -86q-57 23 -114.5 33t-133.5 10q-152 0 -261 -63.5t-180 -169t-104.5 -240.5t-33.5 -279q0 -205 98 -303t272 -98q51 0 101.5 7t87.5 21l102 572q25 4 52.5 6 t52.5 2q29 0 54.5 -2t49.5 -6l-64 -358l-63 -357q-80 -33 -192.5 -51.5t-216.5 -18.5q-133 0 -237.5 41t-176.5 116t-109 180.5t-37 232.5z" />
<glyph unicode="H" horiz-adv-x="1363" d="M190 0l259 1473q25 4 51 6t55 2q25 0 52.5 -2t51.5 -6l-106 -607h565l105 607q25 4 51 6t55 2q25 0 53.5 -2t51.5 -6l-258 -1473q-25 -4 -52.5 -6t-56.5 -2t-54.5 2t-47.5 6l118 682h-563l-119 -682q-25 -4 -53.5 -6t-54.5 -2q-29 0 -54.5 2t-48.5 6z" />
<glyph unicode="I" horiz-adv-x="589" d="M190 0l259 1473q27 4 53 6t53 2q29 0 54.5 -2t49.5 -6l-258 -1473q-29 -4 -54 -6t-54 -2t-54.5 2t-48.5 6z" />
<glyph unicode="J" horiz-adv-x="806" d="M63 2q4 47 12.5 92t30.5 86q23 -6 59 -14t77 -8q43 0 80.5 6t68.5 27.5t53.5 62.5t34.5 108l164 928h-246q0 45 7.5 92.5t23.5 90.5h455l-187 -1063q-23 -123 -57.5 -207t-87.5 -134.5t-127 -72t-174 -21.5q-57 0 -102.5 7.5t-84.5 19.5z" />
<glyph unicode="K" horiz-adv-x="1193" d="M190 0l259 1473q51 6 106 6q53 0 102 -6l-258 -1473q-53 -6 -106 -6q-58 0 -103 6zM594 748l563 725q31 4 58.5 5t52.5 1q27 0 61.5 -1t63.5 -5l-570 -723l353 -750q-66 -6 -117 -6q-49 0 -111 6z" />
<glyph unicode="L" horiz-adv-x="1003" d="M188 0l258 1473q25 4 52.5 6t56.5 2q27 0 51.5 -2t48.5 -6l-225 -1289h549q-4 -53 -10 -96t-25 -88h-756z" />
<glyph unicode="M" horiz-adv-x="1640" d="M164 0l323 1473q27 4 59 6t60 2q29 0 55.5 -2t51.5 -6l200 -912l523 912q23 4 53.5 6t58.5 2q29 0 57.5 -2t51.5 -6l-189 -1473q-27 -4 -52 -6t-52 -2q-29 0 -53.5 2t-44.5 6l151 1120l-471 -815q-47 -6 -84 -6q-41 0 -80 6l-184 819l-240 -1124q-23 -4 -47 -6t-51 -2 q-25 0 -49 2t-47 6z" />
<glyph unicode="N" horiz-adv-x="1370" d="M188 0l258 1473q23 4 50.5 5t50.5 1q51 0 92 -6l414 -1111l192 1111l40 4q19 2 40 2h49l66 -6l-258 -1473q-23 -4 -48.5 -5t-50.5 -1q-23 0 -46 1t-46 5l-416 1104l-190 -1104q-41 -6 -80 -6h-51z" />
<glyph unicode="O" horiz-adv-x="1435" d="M229 516q0 188 49.5 365.5t144.5 313.5t234.5 219t317.5 83q123 0 215 -41t151.5 -112.5t89 -172t29.5 -219.5q0 -193 -50 -368.5t-145.5 -311t-233.5 -216.5t-316 -81q-123 0 -214 39t-151.5 110t-90.5 171t-30 221zM446 518q0 -172 71 -267t220 -95q121 0 214 70.5 t158 184t98.5 256t33.5 283.5q0 166 -68.5 264.5t-222.5 98.5q-123 0 -217 -69.5t-157.5 -182.5t-96.5 -255.5t-33 -287.5z" />
<glyph unicode="P" horiz-adv-x="1159" d="M190 0l259 1475q63 8 145 15t154 7q96 0 186 -18.5t159.5 -63.5t111.5 -120.5t42 -190.5q0 -139 -47 -245.5t-129 -179.5t-195.5 -111t-244.5 -38q-82 0 -137 7l-95 -537q-53 -6 -106 -6q-54 0 -103 6zM526 719q29 -4 55.5 -6t63.5 -2q82 0 151.5 21.5t121 65.5t80 114.5 t28.5 168.5q0 137 -78 187.5t-211 50.5q-27 0 -53.5 -2t-54.5 -6z" />
<glyph unicode="Q" horiz-adv-x="1435" d="M229 516q0 188 49.5 365.5t144.5 313.5t234.5 219t317.5 83q123 0 215 -41t151.5 -112.5t89 -172t29.5 -219.5q0 -193 -50 -368.5t-145.5 -311t-233.5 -216.5t-316 -81q-123 0 -214 39t-151.5 110t-90.5 171t-30 221zM446 518q0 -172 71 -267t220 -95q121 0 214 70.5 t158 184t98.5 256t33.5 283.5q0 166 -68.5 264.5t-222.5 98.5q-123 0 -217 -69.5t-157.5 -182.5t-96.5 -255.5t-33 -287.5zM838 -223q4 43 17 87t36 85l452 -82q-4 -47 -18 -93t-33 -81z" />
<glyph unicode="R" horiz-adv-x="1177" d="M188 0l261 1475q78 12 149.5 17t140.5 5q92 0 180.5 -18.5t157 -61.5t109.5 -113.5t41 -177.5q0 -109 -35 -190.5t-87 -142t-114.5 -101.5t-116.5 -65l269 -627q-61 -6 -119 -6q-59 0 -111 6l-284 686l20 6q12 2 44 14.5t72 35t83 54t79 75.5t58.5 98.5t22.5 122.5 q0 123 -70 176t-193 53q-33 0 -58 -2t-58 -6l-232 -1313q-25 -2 -52.5 -4t-53.5 -2q-25 0 -52.5 1t-50.5 5z" />
<glyph unicode="S" horiz-adv-x="1089" d="M98 39q16 90 68 184q76 -27 149.5 -45t161.5 -18q174 0 267.5 76.5t93.5 205.5q0 84 -54.5 141.5t-165.5 116.5q-68 37 -123 75t-94 81t-60.5 96.5t-21.5 120.5q0 96 37 174t105.5 133.5t165 86t215.5 30.5q111 0 190.5 -16.5t151.5 -44.5q-8 -43 -23.5 -88t-42.5 -86 q-53 25 -119.5 43t-152.5 18q-66 0 -121 -12.5t-96 -37t-64.5 -64.5t-23.5 -95q0 -82 49 -136t151 -110q76 -41 136.5 -79.5t102.5 -84t64.5 -100.5t22.5 -129q0 -113 -42 -205t-120 -157.5t-188.5 -101.5t-249.5 -36q-113 0 -203 17.5t-166 46.5z" />
<glyph unicode="T" horiz-adv-x="1054" d="M276 1290q0 45 8.5 90t24.5 93h940q0 -47 -8 -91.5t-24 -91.5h-365l-225 -1290q-53 -6 -109 -6q-27 0 -53.5 1t-48.5 5l225 1290h-365z" />
<glyph unicode="U" horiz-adv-x="1357" d="M258 387q0 47 6 100.5t17 112.5l153 873q27 4 54.5 6t54.5 2t52.5 -2t49.5 -6l-147 -836q-25 -141 -25 -240q0 -125 52.5 -179t181.5 -54q88 0 150.5 29.5t105.5 89t71.5 148.5t48.5 206l146 836q29 4 54.5 6t53.5 2q25 0 52.5 -2t50.5 -6l-156 -887q-27 -147 -71 -262 t-114.5 -192t-174 -117t-248.5 -40q-211 0 -314.5 100.5t-103.5 311.5z" />
<glyph unicode="V" horiz-adv-x="1249" d="M311 1473q25 4 55.5 6t61.5 2q27 0 54.5 -2t52.5 -6l143 -1235l541 1235q25 4 54.5 6t57.5 2q29 0 58.5 -2t52.5 -6l-676 -1473q-29 -4 -65.5 -6t-65.5 -2q-31 0 -62.5 2t-58.5 6z" />
<glyph unicode="W" horiz-adv-x="1826" d="M326 1473q29 4 63.5 5t69.5 1q45 0 86 -6l26 -1201l484 1201q27 4 58.5 5t57.5 1q23 0 51.5 -1t51.5 -5l80 -1213l438 1213q49 6 106 6q27 0 55.5 -1t51.5 -5l-582 -1473q-25 -4 -58.5 -5t-61.5 -1q-29 0 -62 1t-59 5l-80 1128l-469 -1128q-27 -4 -62.5 -5t-64.5 -1 q-25 0 -56.5 1t-54.5 5z" />
<glyph unicode="X" horiz-adv-x="1243" d="M53 0l479 772l-188 701q57 6 117 6q47 0 100 -6l180 -707l-452 -766q-31 -4 -63.5 -5t-59.5 -1q-58 0 -113 6zM758 766l420 707q55 6 110 6q61 0 117 -6l-434 -703l241 -770q-59 -6 -112 -6q-49 0 -107 6z" />
<glyph unicode="Y" horiz-adv-x="1124" d="M272 1473q29 4 67 5t73 1q43 0 84 -6l196 -723l422 723q55 6 117 6q27 0 56.5 -1t51.5 -5l-579 -943l-92 -530q-55 -6 -109 -6q-57 0 -102 6l96 537z" />
<glyph unicode="Z" horiz-adv-x="1085" d="M66 16l860 1272h-596q0 96 32 185h898l8 -21l-858 -1270h622q0 -51 -8 -96t-25 -86h-923z" />
<glyph unicode="[" horiz-adv-x="700" d="M115 -344l334 1900h430q0 -41 -7.5 -85t-21.5 -80h-232l-274 -1569h229q-2 -39 -8 -82t-20 -84h-430z" />
<glyph unicode="\" horiz-adv-x="837" d="M281 1473q29 4 52 6t50 2q25 0 49.5 -2t48.5 -6l328 -1473q-47 -8 -100 -8q-25 0 -50.5 2t-50.5 6z" />
<glyph unicode="]" horiz-adv-x="673" d="M6 -344q0 41 7 85t22 83h229l277 1567h-230q0 80 29 165h430l-334 -1900h-430z" />
<glyph unicode="^" horiz-adv-x="1081" d="M242 754l438 716q27 4 53.5 6.5t50.5 2.5q29 0 55.5 -2t53.5 -7l186 -716q-29 -4 -52 -5t-46 -1t-46.5 1t-45.5 5l-135 530l-318 -532q-23 -4 -50 -4h-50q-20 0 -43.5 1t-50.5 5z" />
<glyph unicode="_" horiz-adv-x="995" d="M-18 -160q0 29 5 61.5t19 69.5h971q0 -45 -7 -80.5t-18 -70.5h-968q0 4 -1 10t-1 10z" />
<glyph unicode="`" horiz-adv-x="1024" d="M512 1477q31 4 61.5 6t65.5 2t68.5 -2t64.5 -6l189 -260q-47 -8 -99 -9q-31 0 -57.5 2t-48.5 7z" />
<glyph unicode="a" horiz-adv-x="1134" d="M168 307q0 145 45 283.5t133 246t219 173t305 65.5q74 0 149 -11t132 -32l-102 -586q-23 -123 -36.5 -211t-13.5 -153q0 -27 1 -42t6 -38q-23 -4 -49.5 -6t-49.5 -2q-20 0 -44.5 2t-47.5 6q-4 23 -6 46.5t-2 57.5q0 23 5 62t11 70q-23 -45 -59.5 -91.5t-84.5 -84 t-108.5 -62.5t-130.5 -25q-135 0 -203.5 89t-68.5 243zM379 350q0 -98 35 -152.5t104 -54.5q63 0 122.5 41t109 114t85 170t56.5 208l41 219q-25 6 -51.5 8t-59.5 2q-102 0 -183 -47t-139.5 -126t-89 -178.5t-30.5 -203.5z" />
<glyph unicode="b" horiz-adv-x="1169" d="M172 25l186 1056l30.5 196t12.5 148v41q0 14 -2 35q23 4 54.5 6t54.5 2q20 0 46 -1t48 -5q2 -20 3 -37.5t1 -38.5q0 -47 -10 -122.5t-23 -141.5l-47 -268q27 37 58.5 69.5t72.5 57.5t92.5 39t116.5 14q141 0 223 -99t82 -280q0 -145 -44 -275t-133 -229.5t-223 -158 t-314 -58.5q-78 0 -156 15t-129 35zM397 160q23 -6 55.5 -10.5t61.5 -4.5q94 0 175 39t139.5 107.5t92 163t33.5 204.5q0 111 -46 175.5t-136 64.5q-53 0 -102 -22.5t-91 -71.5t-75 -128t-51 -194z" />
<glyph unicode="c" horiz-adv-x="940" d="M180 395q0 123 40 245t119 219t192.5 156.5t261.5 59.5q68 0 129 -12t106 -29q-2 -39 -16.5 -85t-36.5 -81q-41 16 -89 27.5t-102 11.5q-100 0 -173.5 -44t-123 -114.5t-73 -158.5t-23.5 -174q0 -139 68.5 -206t189.5 -67q53 0 105.5 9.5t107.5 31.5q16 -29 25.5 -68.5 t9.5 -90.5q-59 -25 -137 -37.5t-142 -12.5q-225 0 -331.5 110.5t-106.5 309.5z" />
<glyph unicode="d" horiz-adv-x="1130" d="M170 307q0 145 45 283.5t133 246t220 173t304 65.5q23 0 47.5 -2t41.5 -4q23 119 35 205t12 151v41q0 14 -2 35q23 4 54.5 6t53.5 2q20 0 46 -1t46 -5q6 -41 6 -76q0 -47 -9 -120.5t-21 -141.5l-129 -719q-23 -123 -35 -211t-12 -153v-42q0 -15 4 -38q-23 -4 -48.5 -6 t-48.5 -2t-47 2t-45 6q-4 16 -7 35.5t-3 54.5q0 25 5 69t15 81q-25 -45 -61.5 -92.5t-85.5 -86t-109.5 -63.5t-130.5 -25q-135 0 -204.5 89t-69.5 243zM381 350q0 -98 35 -152.5t104 -54.5q63 0 122.5 41t109 114t86 170t57.5 208l39 219q-25 6 -51.5 8t-59.5 2 q-102 0 -183 -47t-139.5 -126t-89 -178.5t-30.5 -203.5z" />
<glyph unicode="e" horiz-adv-x="1019" d="M178 395q0 125 42 247t121 218t188.5 155.5t244.5 59.5t214 -66.5t79 -177.5q0 -90 -44 -156.5t-122 -113.5t-183.5 -77.5t-230.5 -49.5l-106 -16q6 -137 69.5 -207t196.5 -70q82 0 156 19.5t133 42.5q18 -31 26.5 -74t8.5 -86q-31 -14 -75 -26.5t-92 -21.5t-97.5 -14.5 t-90.5 -5.5q-121 0 -203.5 32t-135 88.5t-76 133t-23.5 166.5zM397 569l113 21q104 18 173 41.5t110 51.5t57 58.5t16 67.5q0 47 -32.5 76.5t-94.5 29.5q-66 0 -121 -29.5t-99 -77.5t-75 -110.5t-47 -128.5z" />
<glyph unicode="f" horiz-adv-x="688" d="M-193 -473q8 47 20.5 85t33.5 75q20 -8 45.5 -13.5t52.5 -5.5q47 0 85 12.5t66.5 49.5t52 103.5t42.5 172.5l157 883h-169q0 41 5 79t21 83h170l10 59q35 207 136.5 309.5t285.5 102.5q53 0 92 -7.5t72 -17.5q-12 -53 -25.5 -89t-33.5 -75q-23 8 -47.5 14.5t-57.5 6.5 q-43 0 -77.5 -11.5t-62.5 -39t-48.5 -75.5t-32.5 -122q-4 -14 -6 -27.5t-6 -27.5h252q0 -43 -5.5 -80t-21.5 -82h-252l-158 -895q-25 -137 -60.5 -231.5t-88.5 -153t-124 -84t-165 -25.5q-45 0 -86 7.5t-72 19.5z" />
<glyph unicode="g" horiz-adv-x="1126" d="M76 -457q2 88 45 164q41 -10 96 -21.5t121 -11.5q92 0 163.5 18.5t127 61.5t93.5 113t60 174l43 197q-23 -45 -59.5 -91.5t-85.5 -84t-109.5 -62.5t-130.5 -25q-135 0 -203.5 89.5t-68.5 242.5q0 145 45 283.5t133 246t219 173t305 65.5q74 0 151 -11t134 -32l-91 -512 l-91 -512q-25 -139 -82 -235.5t-141 -156.5t-190.5 -88t-229.5 -28q-70 0 -139.5 12.5t-114.5 30.5zM377 350q0 -98 37 -152.5t104 -54.5q66 0 124 41t106.5 113t84 169t58.5 210l41 217q-49 12 -111 12q-102 0 -184 -47t-139.5 -126t-89 -178.5t-31.5 -203.5z" />
<glyph unicode="h" horiz-adv-x="1161" d="M166 0l190 1079q20 115 32.5 198t12.5 148q0 25 -1 39.5t-3 36.5q23 4 55.5 6t55.5 2q20 0 46 -2t46 -6q6 -37 6 -76q0 -23 -3 -54.5t-7 -66t-10 -71.5t-13 -70q-14 -70 -26 -138l-25 -138q57 76 147.5 131t204.5 55q125 0 196 -65.5t71 -202.5q0 -31 -4 -68t-11 -73 l-116 -664q-23 -4 -52.5 -5t-52.5 -1t-50.5 1t-47.5 5l55 315l56 316l8 61q4 31 4 53q0 78 -42 115t-108 37q-47 0 -96 -20.5t-93 -70.5t-81 -135t-59 -214q-23 -117 -42 -230l-40 -227q-29 -4 -59.5 -5t-59.5 -1q-10 0 -37 1t-47 5z" />
<glyph unicode="i" horiz-adv-x="583" d="M213 0l156 889h-127q0 41 5 80t21 82h328l-184 -1051q-23 -4 -52.5 -5t-52.5 -1t-47 1t-47 5zM367 1268q0 59 10 112.5t26 108.5q29 4 62 6t57 2q25 0 56.5 -2t58.5 -6q-2 -59 -12.5 -113.5t-26.5 -107.5q-29 -4 -61.5 -5t-57.5 -1q-23 0 -55 1t-57 5z" />
<glyph unicode="j" horiz-adv-x="581" d="M-176 -473q0 33 11 78t28 78q23 -8 56.5 -13.5t62.5 -5.5q76 0 132 45t76 162l179 1018h-127q0 41 5 79t21 83h328l-209 -1192q-63 -358 -391 -359q-49 0 -93 7.5t-79 19.5zM367 1268q0 59 10 112.5t26 108.5q29 4 62 6t57 2q25 0 56.5 -2t58.5 -6q-2 -59 -12.5 -113.5 t-26.5 -107.5q-29 -4 -61.5 -5t-57.5 -1q-23 0 -55 1t-57 5z" />
<glyph unicode="k" horiz-adv-x="1032" d="M168 0l190 1079q20 115 31.5 198t11.5 148v39q0 14 -2 37q23 4 54.5 6t54.5 2t47.5 -2t46.5 -6q2 -18 3 -36.5t1 -39.5q0 -37 -6 -91t-16 -113l-215 -1221q-23 -4 -52.5 -5t-52.5 -1t-49.5 1t-46.5 5zM535 545l215 268q57 72 94 131.5t47 106.5q29 4 53.5 6t52.5 2 q29 0 57.5 -2t55.5 -6q-8 -47 -34.5 -91.5t-74.5 -107.5l-125 -152l-128 -151l249 -549q-59 -6 -106 -6q-53 0 -111 6z" />
<glyph unicode="l" horiz-adv-x="608" d="M201 213q0 39 8 82l16 84l129 700q20 115 31.5 198t13.5 148v39q0 14 -2 37q23 4 54.5 6t54.5 2q20 0 46 -2t48 -6q4 -18 4 -37v-39q0 -23 -3 -54.5t-7 -66t-10 -71.5t-13 -70l-159 -864q-6 -35 -6 -55q0 -33 9 -52.5t23.5 -28.5t31.5 -11t34 -2q18 0 41.5 4t40.5 8 q18 -53 18 -127q0 -8 -1 -15.5t-1 -13.5q-31 -10 -75 -15t-87 -5q-53 0 -97 10t-75.5 36.5t-49 70.5t-17.5 110z" />
<glyph unicode="m" horiz-adv-x="1726" d="M168 0l106 608q23 123 36.5 211t13.5 154v42q0 15 -5 38q23 4 49.5 6t49.5 2q20 0 44.5 -2t47.5 -6q4 -16 6 -36t2 -54q0 -25 -2 -47.5t-6 -47.5q53 86 145.5 146.5t206.5 60.5q111 0 169.5 -54t68.5 -159q61 94 155.5 153.5t206.5 59.5q242 0 242 -266q0 -31 -4 -69 t-10 -74l-117 -666q-23 -4 -51.5 -6t-51.5 -2t-50 2t-48 6l111 631q6 33 9 64.5t3 54.5q0 78 -30.5 113.5t-98.5 35.5q-43 0 -89 -20.5t-88 -69.5t-77 -129t-55 -199l-84 -481q-25 -4 -53.5 -6t-51.5 -2t-50 2t-48 6l111 631q6 33 9 64.5t3 54.5q0 78 -31 113.5t-98 35.5 q-43 0 -89 -20.5t-88 -71.5t-78 -136t-58 -214l-82 -457q-25 -4 -53.5 -6t-51.5 -2t-49.5 2t-46.5 6z" />
<glyph unicode="n" horiz-adv-x="1177" d="M182 0l109 608q23 123 36 211t13 154q0 27 -1 42t-5 38q23 4 49.5 6t48.5 2q20 0 46 -2t46 -6q4 -16 6 -38t2 -57q0 -39 -5 -73.5t-11 -67.5q20 43 57 89t86.5 83t109.5 61.5t128 24.5q123 0 191.5 -65.5t68.5 -202.5q0 -31 -4 -69t-10 -72l-117 -666q-25 -4 -53.5 -6 t-50.5 -2q-23 0 -50.5 2t-48.5 6l111 631q6 33 9 63.5t3 53.5q0 82 -38 116.5t-101 34.5q-55 0 -108.5 -34t-100.5 -99.5t-85 -161.5t-60 -221l-68 -383q-25 -4 -53.5 -6t-50.5 -2q-23 0 -51 2t-48 6z" />
<glyph unicode="o" horiz-adv-x="1140" d="M182 379q0 113 35 236.5t107.5 225t182 168t259.5 66.5q193 0 289 -106.5t96 -298.5q0 -115 -35 -238t-106.5 -224.5t-182 -167t-262.5 -65.5q-190 0 -286.5 105.5t-96.5 298.5zM389 377q0 -117 50 -178.5t147 -61.5q96 0 164.5 52.5t111.5 132t63.5 173t20.5 175.5 q0 117 -52 178t-149 61q-96 0 -163.5 -53t-110.5 -133t-62.5 -173t-19.5 -173z" />
<glyph unicode="p" horiz-adv-x="1169" d="M80 -483l194 1091q23 123 36.5 211t13.5 154q0 27 -1 42t-4 38q23 4 48.5 6t48.5 2q20 0 45.5 -2t48.5 -6q4 -16 6 -36t2 -54q0 -25 -2 -44.5t-6 -44.5q55 86 143 143.5t213 57.5q141 0 223 -99t82 -280q0 -145 -44 -275t-132 -229.5t-219 -158t-305 -58.5 q-33 0 -58.5 2.5t-47.5 6.5l-80 -467q-25 -4 -53.5 -6.5t-49.5 -2.5q-23 0 -50 2.5t-52 6.5zM397 160q23 -8 55.5 -11.5t61.5 -3.5q94 0 175 39t139.5 107.5t92 163t33.5 204.5q0 111 -47 175.5t-135 64.5q-53 0 -102 -22.5t-91 -71.5t-75 -128t-51 -194z" />
<glyph unicode="q" horiz-adv-x="1128" d="M174 309q0 145 45 282.5t133 245t219 173t303 65.5q76 0 150 -12t133 -29l-266 -1517q-23 -4 -51.5 -6.5t-48.5 -2.5q-23 0 -50.5 2.5t-50.5 6.5l123 698q-25 -41 -60.5 -83t-81.5 -77t-102.5 -57.5t-122.5 -22.5q-135 0 -203.5 90t-68.5 244zM383 352q0 -98 36 -153.5 t103 -55.5q63 0 123 41t109 114t84.5 170t56.5 208l41 219q-23 6 -50.5 8t-60.5 2q-102 0 -183 -47t-139.5 -125t-89 -177.5t-30.5 -203.5z" />
<glyph unicode="r" horiz-adv-x="747" d="M166 0l50.5 272.5l51 277.5t40 245.5t16.5 177.5q0 27 -1 42t-6 38q23 4 49.5 5t49.5 1q20 0 45.5 -1t46.5 -5q4 -16 6 -36t2 -54q0 -47 -6 -93q27 37 58.5 70t70.5 59.5t86 42t104 15.5q16 0 36 -2t32 -6q0 -41 -9 -93.5t-32 -89.5q-8 2 -25.5 4t-33.5 2 q-137 0 -222.5 -98t-121.5 -303l-84 -471q-43 -6 -84 -6h-52z" />
<glyph unicode="s" horiz-adv-x="888" d="M92 27q4 45 15.5 86t33.5 77q53 -23 125 -36t133 -13q51 0 96.5 9.5t78 29t52 52t19.5 81.5q0 63 -37 95t-104 59l-66 27q-31 12 -65.5 30.5t-63 47t-48 72.5t-19.5 106q0 76 30.5 136t86 102t132 64.5t171.5 22.5q84 0 159.5 -18.5t118.5 -40.5q-16 -80 -59 -154 q-35 16 -96.5 33.5t-131.5 17.5q-88 0 -146 -30.5t-58 -106.5q0 -47 27.5 -78.5t98.5 -60.5l46 -21l80 -38q42 -20 76 -50t55.5 -72t21.5 -104q0 -98 -37 -168.5t-101.5 -117t-149.5 -69t-183 -22.5q-82 0 -161 14.5t-130 37.5z" />
<glyph unicode="t" horiz-adv-x="716" d="M184 889q0 41 6.5 79t22.5 83h164q10 53 18 108t8 115v33q41 20 98.5 30.5t98.5 10.5q2 -18 3 -37t1 -39q0 -63 -16 -158l-13 -63h265q0 -45 -6.5 -83t-20.5 -79h-262l-80 -445q-10 -47 -18.5 -97t-8.5 -91q0 -61 32 -85t85 -24q35 0 63.5 5.5t57.5 13.5q6 -20 10 -45 t4 -53v-30q0 -15 -2 -32q-27 -8 -69.5 -15t-92.5 -7q-66 0 -120 9t-92.5 34.5t-60 69.5t-21.5 116q0 39 7 83l15 91l90 502h-166z" />
<glyph unicode="u" horiz-adv-x="1163" d="M209 244q0 31 4 68.5t10 72.5l117 666q23 4 52.5 6t51.5 2q23 0 49.5 -2t49.5 -6l-111 -631q-12 -66 -12 -117q0 -82 38 -116.5t101 -34.5q55 0 108.5 33.5t100.5 99t85 162t60 221.5l68 383q25 4 53.5 6t50.5 2q23 0 50.5 -2t48.5 -6l-109 -609q-23 -123 -36 -211 t-13 -153q0 -27 1 -42.5t3 -37.5q-23 -4 -48.5 -6t-47.5 -2q-20 0 -46 2t-46 6q-8 27 -8 94q0 39 5 74t11 67q-20 -43 -57 -89t-86.5 -82.5t-109.5 -61.5t-128 -25q-123 0 -191.5 66t-68.5 203z" />
<glyph unicode="v" horiz-adv-x="1024" d="M203 1051q25 4 52.5 6t53.5 2q31 0 58.5 -2t52.5 -6l119 -844l264 530q47 96 75.5 175t30.5 124v15q27 4 55.5 6t57.5 2q31 0 60.5 -2t54.5 -6v-11q0 -33 -10.5 -68.5t-39.5 -92.5l-238 -442l-243 -437q-55 -6 -106 -6q-23 0 -54.5 1t-54.5 5z" />
<glyph unicode="w" horiz-adv-x="1564" d="M221 1051q29 4 55.5 6t55.5 2q59 0 106 -8l80 -815l328 815q23 4 49.5 6t48.5 2q27 0 51.5 -2t48.5 -6l101 -818l256 621q25 59 34 105.5t9 72.5v19q25 4 50.5 6t53.5 2q66 0 113 -8v-9q0 -45 -17.5 -95t-54.5 -126l-381 -821q-27 -4 -56.5 -6t-57.5 -2q-25 0 -51.5 2 t-49.5 6l-102 756l-311 -756q-27 -4 -56.5 -6t-56.5 -2q-25 0 -52.5 2t-49.5 6z" />
<glyph unicode="x" horiz-adv-x="1003" d="M61 0q2 6 2 13t5 16q4 43 39.5 106.5t86.5 133.5l106 144l101 134l-147 504q23 4 49.5 6t54.5 2q29 0 49.5 -2t49.5 -6l141 -506l-262 -383q-33 -47 -49.5 -86t-16.5 -76q-35 -4 -62.5 -5t-47.5 -1q-25 0 -44.5 1t-54.5 5zM614 545l222 332q35 53 47 99t12 75 q35 6 57.5 7t42.5 1q49 0 97 -8q0 -47 -15.5 -99.5t-56.5 -111.5l-102 -143l-103 -142l166 -555q-31 -4 -57.5 -6t-55.5 -2q-25 0 -50 2t-48 6l-79 272z" />
<glyph unicode="y" horiz-adv-x="1024" d="M45 -481q2 45 12.5 86t32.5 71q18 -6 45 -11t49 -5q31 0 64 9t68.5 44t76.5 102.5t90 184.5q-16 -2 -34 -2h-37h-31q-16 0 -29 2l-68 524l-69 527q29 4 52.5 6t51.5 2q29 0 55.5 -2t53.5 -6l104 -949l117 258l93 215l76 181l63 155q12 33 18 64t6 47q0 10 -1 16t-1 13 q39 6 86 6h129q2 -8 2 -17v-16q0 -49 -20.5 -106.5t-44.5 -114.5l-198 -425l-236 -501q-57 -121 -110.5 -194.5t-106 -114.5t-105.5 -55.5t-115 -14.5q-71 1 -139 21z" />
<glyph unicode="z" horiz-adv-x="919" d="M63 29l658 860h-455q0 41 5 80t24 82h743l6 -27l-659 -864h498q0 -41 -6.5 -83t-22.5 -77h-784z" />
<glyph unicode="{" horiz-adv-x="778" d="M193 606l4 23q53 27 92 53.5t67.5 59t48 74.5t33.5 99l65 282q28 122 73 205t122.5 125t219.5 42q14 0 27 -1t28 -3q0 -37 -9.5 -82t-21.5 -80h-22q-66 0 -108 -17.5t-67.5 -53.5t-42 -92t-30.5 -136q-4 -16 -4 -25l-17 -88q-18 -92 -37.5 -154.5t-46 -104.5t-62.5 -69.5 t-83 -52.5q57 -35 85 -83t28 -138q0 -37 -8.5 -97.5t-19.5 -125t-19.5 -121.5t-8.5 -88q0 -78 40 -106.5t143 -28.5q0 -37 -6.5 -78t-20.5 -82q-8 0 -15.5 -1t-13.5 -1q-174 0 -250.5 69.5t-76.5 213.5q0 31 4 65.5t10 71.5l35 194q6 51 6 95q0 78 -32.5 134t-108.5 103z " />
<glyph unicode="|" horiz-adv-x="681" d="M193 -344l339 1933q25 4 51.5 6t51.5 2q27 0 51.5 -2t44.5 -6l-340 -1933q-23 -4 -47.5 -6t-50.5 -2q-29 0 -53 2t-47 6z" />
<glyph unicode="}" horiz-adv-x="770" d="M20 -334q0 37 9.5 82t21.5 80h23q66 0 107.5 17.5t67 53t42 92t31.5 136.5q4 16 4 25l16 88q18 92 37.5 154.5t46.5 104.5t62.5 69.5t82.5 52.5q-57 35 -84.5 83t-27.5 138q0 37 8 97t19.5 124.5t19.5 122t8 88.5q0 78 -40 106.5t-142 28.5q0 37 6 78t20 82q8 0 15.5 1 t13.5 1q174 0 251 -69.5t77 -213.5q0 -31 -4 -65.5t-11 -71.5l-34 -195q-6 -53 -7 -94q0 -78 33 -134t109 -103l-4 -23q-53 -27 -92 -53.5t-68 -59t-48.5 -74.5t-33.5 -100l-65 -281q-28 -122 -72.5 -205t-122.5 -125t-219 -42q-14 0 -28 1t-28 3z" />
<glyph unicode="~" horiz-adv-x="980" d="M193 836q23 23 57.5 44t73 38.5t80.5 27.5t81 10q49 0 90 -13t80 -28.5t80 -28t88 -12.5q37 0 78 16.5t94 61.5q29 -35 46.5 -66.5t31.5 -74.5q-55 -47 -128 -76.5t-152 -29.5q-47 0 -88 12t-82 27.5t-81 28.5t-83 13q-41 0 -88 -18t-99 -61q-29 29 -49 59.5t-30 69.5z " />
<glyph unicode="&#xa1;" horiz-adv-x="577" d="M100 -414l197 1032q51 6 98 7q49 0 97 -7l-173 -1032q-55 -6 -106 -6q-56 0 -113 6zM328 831q0 59 10 113.5t27 114.5q29 4 56.5 6t53.5 2q29 0 56.5 -2t52.5 -6q0 -117 -39 -228q-29 -4 -55.5 -6t-55.5 -2q-27 0 -54 2t-52 6z" />
<glyph unicode="&#xa2;" d="M319 393q0 113 34 225.5t99.5 206t161 158t220.5 82.5l43 238q18 4 35.5 7t35.5 3t35.5 -3t36.5 -7l-21 -115l-20 -117q53 -4 102 -14t84 -23q-2 -39 -15 -86t-36 -82q-41 16 -90 27.5t-104 11.5q-98 0 -172 -46t-122 -116.5t-73 -158.5t-25 -170q0 -139 69 -205t191 -66 q102 0 213 39q14 -29 24.5 -68.5t10.5 -88.5q-53 -23 -123.5 -34t-126.5 -14l-36 -219q-33 -8 -72 -8q-20 0 -37.5 2t-34.5 6l39 226q-168 27 -247 133t-79 276z" />
<glyph unicode="&#xa3;" d="M211 23q10 10 21.5 18t23.5 18q111 92 172 224.5t61 291.5q0 12 -1 23.5t-1 24.5h-184q0 78 29 159h147q-4 39 -6 76t-2 72q0 113 29.5 211t93 171.5t161 117t230.5 43.5q121 0 203 -23t131 -45q-10 -41 -27.5 -80t-46.5 -86q-53 23 -119.5 41t-144.5 18 q-84 0 -140.5 -26.5t-92 -74.5t-51 -115.5t-15.5 -149.5q0 -33 3 -71t7 -79h383q0 -80 -28 -159h-347q0 -109 -26.5 -223.5t-114.5 -215.5h580q0 -53 -10.5 -100t-20.5 -84h-893z" />
<glyph unicode="&#xa4;" d="M205 315l155 156q-35 51 -53 112.5t-18 129.5q0 70 20.5 131t57.5 114l-162 164q23 45 53.5 74t71.5 47l162 -164q51 35 111.5 53.5t127.5 18.5q68 0 128.5 -18.5t113.5 -53.5l164 164q37 -23 68.5 -52.5t51.5 -66.5l-161 -161q39 -53 60.5 -117t21.5 -133 q0 -70 -21.5 -131.5t-56.5 -114.5l155 -156q-45 -78 -116 -121l-162 160q-109 -74 -246 -74q-139 0 -248 74l-157 -157q-45 20 -74 51.5t-47 70.5zM471 713q0 -57 19.5 -106.5t54.5 -86.5t83 -58.5t103 -21.5q57 0 105.5 21.5t83 58.5t55 86t20.5 107q0 57 -20.5 106t-55 86 t-83 58.5t-105.5 21.5q-55 0 -103 -21.5t-83 -58.5t-54.5 -86t-19.5 -106z" />
<glyph unicode="&#xa5;" d="M190 338q0 37 4.5 70.5t20.5 72.5h373l26 160h-372q0 43 7 77t19 66h295l-241 676q27 4 58.5 6t59.5 2q29 0 55.5 -2t49.5 -6l203 -622l397 622q31 4 65.5 5t67.5 1q20 0 46 -1t46 -5l-446 -676h317q0 -35 -4 -68.5t-20 -74.5h-394l-28 -160h393q0 -41 -7 -75.5 t-18 -67.5h-393l-59 -338q-53 -6 -107 -6q-57 0 -102 6l59 338h-371z" />
<glyph unicode="&#xa6;" horiz-adv-x="481" d="M80 -344l119 682q25 4 50 6t50 2q27 0 51.5 -2t46.5 -6l-118 -682q-25 -4 -49.5 -6t-51.5 -2t-51 2t-47 6zM299 907l119 682q25 4 50.5 6t49.5 2q27 0 51.5 -2t46.5 -6l-118 -682q-23 -4 -48.5 -6t-52.5 -2t-51 2t-47 6z" />
<glyph unicode="&#xa7;" horiz-adv-x="1118" d="M225 35q10 43 28.5 82t41.5 73q47 -23 123 -40t145 -17q37 0 81 5t83 20.5t64.5 45t25.5 77.5q0 53 -40 81.5t-93 47.5l-252 86q-86 29 -128 77t-42 125q0 86 45 157t119 134q-18 27 -31.5 60.5t-13.5 76.5q0 88 37 154t99.5 109t145 63.5t175.5 20.5q98 0 186 -18.5 t147 -45.5q-10 -43 -29.5 -81t-41.5 -73q-47 23 -118 39.5t-138 16.5q-41 0 -85 -6.5t-81 -21.5t-60.5 -43t-23.5 -71q0 -59 42 -86.5t95 -46.5l213 -75q80 -29 130 -75t50 -126q0 -82 -44 -153.5t-111 -135.5q61 -66 61 -152q0 -88 -38 -153.5t-100.5 -108.5t-145 -63.5 t-173.5 -20.5q-49 0 -100 5.5t-97 13.5t-85 19.5t-66 23.5zM457 762q0 -41 26.5 -63.5t85.5 -43.5l112 -40q56 -19 114 -42l55 -20q29 29 53.5 64.5t24.5 76.5q0 33 -31 58.5t-77 45t-102 38l-106 36.5l-73 29q-31 -27 -56.5 -62.5t-25.5 -76.5z" />
<glyph unicode="&#xa8;" horiz-adv-x="1024" d="M397 1237q2 53 10.5 103.5t26.5 101.5q27 4 54.5 6t50.5 2t51 -2t53 -6q-2 -53 -10 -103.5t-27 -101.5q-53 -6 -104 -6q-23 0 -51.5 1t-53.5 5zM815 1237q2 53 9 103.5t28 101.5q25 4 52.5 6t51.5 2q23 0 51.5 -2t53.5 -6q-4 -53 -12.5 -102.5t-24.5 -102.5 q-53 -6 -104 -6q-23 0 -51.5 1t-53.5 5z" />
<glyph unicode="&#xa9;" horiz-adv-x="1732" d="M225 735q0 162 55.5 302.5t155 241.5t239.5 159.5t310 58.5t310.5 -57.5t239.5 -159.5t154.5 -241.5t55.5 -303.5t-55.5 -303t-154.5 -240.5t-239.5 -160t-310.5 -58.5t-310 58.5t-239.5 160t-155 240.5t-55.5 303zM375 735q0 -131 42 -245.5t120.5 -199.5t192.5 -134.5 t255 -49.5q143 0 256 49.5t191.5 134.5t120.5 199.5t42 245.5t-42 246t-120.5 200t-191.5 134t-256 49q-141 0 -255 -49t-192.5 -134t-120.5 -200t-42 -246zM616 733q0 92 28 172t78 138.5t123 92t165 33.5q74 0 117.5 -8t93.5 -24q-2 -37 -8.5 -73t-22.5 -69 q-47 14 -83 19.5t-81 5.5q-117 0 -177.5 -77t-60.5 -210q0 -137 66 -207.5t176 -70.5q45 0 83 7t79 25q35 -59 43 -137q-47 -23 -103.5 -33t-115.5 -10q-94 0 -169 32t-126 89t-78 135t-27 170z" />
<glyph unicode="&#xaa;" horiz-adv-x="1024" d="M276 858q0 115 36 224.5t108 195.5t177 138t245 52q59 0 123.5 -10t111.5 -26l-92 -517q-25 -147 -24 -229v-34q0 -15 2 -34q-20 -2 -47 -3t-44 -1q-16 0 -37.5 1t-39.5 3q-8 33 -9 87q0 14 2.5 35.5t6.5 50.5q-45 -76 -117 -134.5t-172 -58.5q-115 0 -172.5 68.5 t-57.5 191.5zM463 897q0 -74 24.5 -117t77.5 -43q49 0 94.5 33t83 89t66.5 133t45 165l31 164q-18 4 -38 5t-42 1q-78 0 -141.5 -37t-108.5 -97t-68.5 -137t-23.5 -159z" />
<glyph unicode="&#xab;" horiz-adv-x="1198" d="M661 555l428 444q25 4 55.5 6.5t57.5 2.5q29 0 61.5 -2t61.5 -7l-432 -456l264 -451q-29 -4 -57.5 -6t-57.5 -2q-27 0 -52.5 2t-49.5 6zM176 555l428 444q25 4 55.5 6.5t57.5 2.5q29 0 61.5 -2t61.5 -7l-432 -456l264 -451q-29 -4 -57.5 -6t-57.5 -2q-27 0 -52.5 2 t-49.5 6z" />
<glyph unicode="&#xac;" d="M274 694q0 23 1 49.5t6 47.5h856v-572q-18 -4 -44 -6t-49 -2t-49 2t-47 6v383h-667q-4 18 -5.5 43.5t-1.5 48.5z" />
<glyph unicode="&#xad;" horiz-adv-x="735" d="M199 496q4 96 32 188h517q0 -43 -9.5 -94t-23.5 -94h-516z" />
<glyph unicode="&#xae;" horiz-adv-x="1732" d="M225 735q0 162 55.5 302.5t155 241.5t239.5 159.5t310 58.5t310.5 -57.5t239.5 -159.5t154.5 -241.5t55.5 -303.5t-55.5 -303t-154.5 -240.5t-239.5 -160t-310.5 -58.5t-310 58.5t-239.5 160t-155 240.5t-55.5 303zM375 735q0 -133 42 -247.5t120.5 -198.5t191.5 -133.5 t256 -49.5q141 0 255 49.5t192.5 133.5t120.5 198.5t42 247.5q0 131 -42 246t-120.5 199t-192.5 133t-255 49q-143 0 -256 -49t-191.5 -133t-120.5 -199t-42 -246zM733 354v789q51 6 101.5 10t111.5 4q74 0 135.5 -14.5t105.5 -43t69.5 -75.5t25.5 -111q0 -47 -13.5 -83.5 t-34 -65.5t-46 -48.5t-49.5 -33.5l213 -326q-29 -4 -52.5 -5t-46.5 -1q-43 0 -79 6l-234 365l41 18q49 23 94 61t45 97t-43 92t-114 33q-16 0 -35 -1t-41 -5v-662q-31 -6 -76 -6t-78 6z" />
<glyph unicode="&#xaf;" horiz-adv-x="1024" d="M410 1262q0 41 4 79.5t20 79.5h553q0 -41 -5 -78.5t-19 -80.5h-553z" />
<glyph unicode="&#xb0;" horiz-adv-x="757" d="M236 1188q0 63 23.5 117.5t63 94.5t95 63.5t117.5 23.5q61 0 115.5 -23.5t95 -63.5t64.5 -94.5t24 -117.5q0 -61 -24 -115.5t-64.5 -94.5t-95 -63.5t-115.5 -23.5t-117 23.5t-95.5 63.5t-63 94.5t-23.5 115.5zM381 1188q0 -70 44 -115t110 -45t109.5 45t43.5 115t-44 116 t-109 46q-66 0 -110 -46t-44 -116z" />
<glyph unicode="&#xb1;" d="M172 2q0 49 8 94t24 92h867v-14q0 -47 -8.5 -90t-22.5 -82h-868zM285 629q0 41 6 87t22 93h340l66 373q23 4 46 6t48 2q23 0 47.5 -2t46.5 -6l-65 -373h336q0 -45 -6.5 -88t-22.5 -92h-340l-66 -373q-41 -8 -94 -8q-25 0 -48 2t-46 6l66 373h-336z" />
<glyph unicode="&#xb2;" horiz-adv-x="921" d="M213 651l326 305q63 59 112 115.5t49 128.5q0 111 -116 111q-47 0 -98.5 -14.5t-92.5 -32.5q-12 29 -23.5 62.5t-13.5 70.5q59 27 127 44t144 17q121 0 190.5 -61.5t69.5 -165.5q0 -55 -17.5 -102.5t-46 -88.5t-69.5 -79l-86 -82l-115 -105h303q0 -72 -27 -147h-612z" />
<glyph unicode="&#xb3;" horiz-adv-x="921" d="M242 649q12 68 59 131q51 -16 97 -27.5t96 -11.5q37 0 71.5 8.5t62 27t44 49t16.5 73.5q0 59 -38 89t-101 30q-16 0 -39 -2t-45 -6l-19 24l236 273h-295q0 35 5 69.5t18 71.5h510l10 -31l-248 -295q96 -12 140 -71.5t44 -130.5q0 -76 -29.5 -135.5t-79.5 -99.5 t-118 -61.5t-141 -21.5q-82 0 -146.5 13.5t-109.5 33.5z" />
<glyph unicode="&#xb4;" horiz-adv-x="1024" d="M520 1217l199 260q33 4 65.5 6t67.5 2t65.5 -2t61.5 -6l-254 -260q-23 -4 -50.5 -6.5t-58.5 -2.5q-23 0 -47 2.5t-49 6.5z" />
<glyph unicode="&#xb5;" horiz-adv-x="1187" d="M61 -483l263 1534q23 4 50 6t50 2t50.5 -2t49.5 -6l-96 -549q-6 -39 -10 -79t-4 -75q0 -102 44 -154.5t144 -52.5q45 0 92 18.5t88 55.5t73 93.5t44 131.5l105 611q23 4 50 6t50 2t50.5 -2t49.5 -6l-180 -1051q-16 -4 -36.5 -6t-43.5 -2t-46.5 2t-39.5 6v23q0 27 1 55 t5 53q-53 -72 -124.5 -114t-174.5 -42q-72 0 -129 29t-82 76l-94 -563q-23 -4 -51.5 -6.5t-50.5 -2.5q-23 0 -50 2.5t-47 6.5z" />
<glyph unicode="&#xb6;" horiz-adv-x="1177" d="M240 1001q0 137 50 230.5t142 150t220 80t286 23.5l-256 -1495h-35q-31 0 -63.5 2t-63.5 10l111 639q-78 6 -149.5 28.5t-125 65.5t-85 108.5t-31.5 157.5zM838 -12l256 1497q53 0 95 -3t64 -12l-252 -1470q-54 -12 -163 -12z" />
<glyph unicode="&#xb7;" horiz-adv-x="493" d="M215 461q0 57 11 113.5t28 113.5q29 4 57.5 6.5t57.5 2.5t57.5 -2.5t54.5 -6.5q0 -59 -10 -113.5t-27 -113.5q-33 -4 -60.5 -6t-55.5 -2q-29 0 -56.5 2t-56.5 6z" />
<glyph unicode="&#xb8;" horiz-adv-x="1024" d="M260 -455q6 27 17.5 58.5t29.5 54.5q29 -10 64 -19.5t65 -9.5q20 0 43 2t43.5 10.5t33.5 25t13 44.5q0 39 -31.5 54.5t-84.5 15.5q-27 0 -54.5 -4t-56.5 -10l-8 10l141 270h121l-88 -166q6 2 15 3t26 1q82 0 128 -45t46 -114q0 -63 -24.5 -105.5t-64.5 -68t-91 -36 t-105 -10.5q-61 0 -108 12.5t-70 26.5z" />
<glyph unicode="&#xb9;" horiz-adv-x="921" d="M287 627q0 37 5 72.5t23 72.5h183l82 467l-193 -78q-41 55 -47 133l397 162h54l-119 -684h188q0 -37 -5 -72.5t-21 -72.5h-547z" />
<glyph unicode="&#xba;" horiz-adv-x="1024" d="M281 920q0 88 26.5 185t84 179t147.5 134t215 52q158 0 236.5 -85t78.5 -240q0 -90 -26.5 -186.5t-84 -176.5t-146.5 -132t-214 -52q-156 0 -236.5 84t-80.5 238zM467 918q0 -180 143 -181q74 0 126 40t85 101.5t48.5 133t15.5 133.5q0 90 -39 136t-109 46 q-74 0 -125 -41t-82.5 -102.5t-47 -133t-15.5 -132.5z" />
<glyph unicode="&#xbb;" horiz-adv-x="1241" d="M577 92l436 467l-268 440q29 4 57.5 6.5t57.5 2.5q27 0 52.5 -2t49.5 -7l279 -467l-430 -440q-25 -4 -54.5 -6t-58.5 -2t-60.5 2t-60.5 6zM94 92l436 467l-268 440q29 4 57.5 6.5t57.5 2.5q27 0 52.5 -2t49.5 -7l279 -467l-430 -440q-25 -4 -54.5 -6t-58.5 -2t-60.5 2 t-60.5 6z" />
<glyph unicode="&#xbc;" horiz-adv-x="2150" d="M542 2l1133 1448q25 4 55.5 6t57.5 2t55.5 -2t50.5 -6l-1134 -1448q-29 -4 -53.5 -6t-49.5 -2q-27 0 -58.5 2t-56.5 6zM287 627q0 37 5 72.5t23 72.5h183l82 467l-193 -78q-41 55 -47 133l397 162h54l-119 -684h188q0 -37 -5 -72.5t-21 -72.5h-547zM1288 188l436 664 q41 -6 79 -20.5t65 -33.5l-332 -499h201l30 168q18 4 36 5t40 1q41 0 76 -6l-29 -168h94q0 -31 -5 -69t-17 -69h-94l-29 -161q-16 -2 -32.5 -3t-37.5 -1q-23 0 -41 1t-41 5l27 159h-416z" />
<glyph unicode="&#xbd;" horiz-adv-x="2150" d="M518 2l1133 1448q25 4 55.5 6t57.5 2t55.5 -2t50.5 -6l-1134 -1448q-29 -4 -53.5 -6t-49.5 -2q-27 0 -58.5 2t-56.5 6zM287 627q0 37 5 72.5t23 72.5h183l82 467l-193 -78q-41 55 -47 133l397 162h54l-119 -684h188q0 -37 -5 -72.5t-21 -72.5h-547zM1343 26l326 305 q63 59 112 115.5t49 128.5q0 111 -116 111q-47 0 -98.5 -14.5t-92.5 -32.5q-12 29 -23.5 62.5t-13.5 70.5q59 27 127 44t144 17q121 0 190.5 -61.5t69.5 -165.5q0 -55 -17.5 -102.5t-46 -88.5t-69.5 -79l-86 -82l-115 -105h303q0 -72 -27 -147h-612z" />
<glyph unicode="&#xbe;" horiz-adv-x="2150" d="M505 2l1133 1448q25 4 55.5 6t57.5 2t55.5 -2t50.5 -6l-1134 -1448q-29 -4 -53.5 -6t-49.5 -2q-27 0 -58.5 2t-56.5 6zM1262 188l436 664q41 -6 79 -20.5t65 -33.5l-332 -499h201l30 168q18 4 36 5t40 1q41 0 76 -6l-29 -168h94q0 -31 -5 -69t-17 -69h-94l-29 -161 q-16 -2 -32.5 -3t-37.5 -1q-23 0 -41 1t-41 5l27 159h-416zM256 649q12 68 59 131q51 -16 97 -27.5t96 -11.5q37 0 71.5 8.5t62 27t44 49t16.5 73.5q0 59 -38 89t-101 30q-16 0 -39 -2t-45 -6l-19 24l236 273h-295q0 35 5 69.5t18 71.5h510l10 -31l-248 -295 q96 -12 140 -71.5t44 -130.5q0 -76 -29.5 -135.5t-79.5 -99.5t-118 -61.5t-141 -21.5q-82 0 -146.5 13.5t-109.5 33.5z" />
<glyph unicode="&#xbf;" horiz-adv-x="927" d="M145 -82q0 90 34 169t92.5 142.5t133 110.5t158.5 72l35 211q51 6 98 6q25 0 49.5 -1t47.5 -5l-58 -332l-76 -21q-59 -16 -111 -44.5t-93 -69.5t-64.5 -93.5t-23.5 -115.5q0 -94 65.5 -143.5t175.5 -49.5q78 0 134.5 13.5t121.5 35.5q14 -35 24.5 -83t10.5 -89 q-94 -35 -175 -45t-161 -10q-102 0 -181 25.5t-131 71.5t-79 108.5t-27 136.5zM618 831q2 61 11.5 117t29.5 111q29 4 57.5 6t57.5 2t56.5 -2t56.5 -6q-2 -59 -11.5 -116.5t-29.5 -111.5q-29 -4 -57.5 -7t-57.5 -3q-27 0 -55.5 3t-57.5 7z" />
<glyph unicode="&#xc0;" horiz-adv-x="1226" d="M72 0l669 1473q27 4 65 5t66 1q31 0 63 -1t56 -5l201 -1473q-59 -6 -119 -6q-49 0 -100 6l-39 346h-496l-149 -346q-49 -6 -111 -6q-29 0 -56 1t-50 5zM518 526h395l-84 711zM557 1825q25 4 64.5 6t78.5 2q35 0 67.5 -2t55.5 -6l186 -232q-16 -4 -44.5 -7t-57.5 -3 q-33 0 -59.5 2t-45.5 6z" />
<glyph unicode="&#xc1;" horiz-adv-x="1226" d="M72 0l669 1473q27 4 65 5t66 1q31 0 63 -1t56 -5l201 -1473q-59 -6 -119 -6q-49 0 -100 6l-39 346h-496l-149 -346q-49 -6 -111 -6q-29 0 -56 1t-50 5zM518 526h395l-84 711zM711 1593l250 224q25 4 58.5 6t68.5 2q37 0 75.5 -2t61.5 -6l-297 -226q-20 -4 -52 -5t-65 -1 q-29 0 -56.5 2t-43.5 6z" />
<glyph unicode="&#xc2;" horiz-adv-x="1226" d="M72 0l669 1473q27 4 65 5t66 1q31 0 63 -1t56 -5l201 -1473q-59 -6 -119 -6q-49 0 -100 6l-39 346h-496l-149 -346q-49 -6 -111 -6q-29 0 -56 1t-50 5zM518 526h395l-84 711zM547 1595l260 226q27 4 60.5 6t62.5 2q20 0 50 -2t56 -6l168 -226q-23 -4 -47 -6t-51 -2 q-23 0 -50.5 2t-54.5 8l-92 123l-141 -125q-27 -4 -58.5 -6t-56.5 -2q-29 0 -56 2t-50 6z" />
<glyph unicode="&#xc3;" horiz-adv-x="1226" d="M72 0l669 1473q27 4 65 5t66 1q31 0 63 -1t56 -5l201 -1473q-59 -6 -119 -6q-49 0 -100 6l-39 346h-496l-149 -346q-49 -6 -111 -6q-29 0 -56 1t-50 5zM518 526h395l-84 711zM543 1737q39 41 93 71.5t120 30.5q43 0 78 -11t67.5 -25.5t66.5 -26t75 -11.5q35 0 62.5 11.5 t68.5 46.5q16 -20 35.5 -53t23.5 -62q-41 -37 -95 -67.5t-120 -30.5q-43 0 -78 11t-67.5 24.5t-66.5 24.5t-70 11q-39 0 -67 -12t-67 -43q-18 20 -36.5 51t-22.5 60z" />
<glyph unicode="&#xc4;" horiz-adv-x="1226" d="M72 0l669 1473q27 4 65 5t66 1q31 0 63 -1t56 -5l201 -1473q-59 -6 -119 -6q-49 0 -100 6l-39 346h-496l-149 -346q-49 -6 -111 -6q-29 0 -56 1t-50 5zM518 526h395l-84 711zM547 1593q0 106 35 207q29 4 56.5 6t51.5 2q27 0 55.5 -2t51.5 -6q0 -106 -35 -207 q-29 -4 -56.5 -6t-54.5 -2q-25 0 -52 2t-52 6zM985 1593q0 102 35 207q27 4 55.5 6t53.5 2q27 0 54 -2t52 -6q-4 -104 -35 -207q-29 -4 -56.5 -6t-53.5 -2q-25 0 -53.5 2t-51.5 6z" />
<glyph unicode="&#xc5;" horiz-adv-x="1239" d="M74 0l669 1468q-45 27 -68.5 73t-23.5 104q0 57 20.5 107t56.5 87t85 57.5t109 20.5q104 0 159.5 -62.5t55.5 -154.5q0 -78 -39 -139.5t-105 -92.5l201 -1468q-47 -6 -109 -6q-57 0 -108 6l-21 172l-20 174h-494l-151 -346q-41 -6 -86 -6h-55zM520 526h395l-84 711z M780 1661q0 -53 23.5 -86t77.5 -33q59 0 92 44t33 104q0 49 -21.5 82.5t-75.5 33.5q-61 0 -95 -42t-34 -103z" />
<glyph unicode="&#xc6;" horiz-adv-x="1796" d="M0 0l1018 1473h930q0 -86 -31 -185h-569l-74 -420h455q0 -43 -8.5 -90t-24.5 -94h-455l-88 -502h584q0 -45 -8.5 -91t-22.5 -91h-795l60 344h-496l-244 -344q-29 -4 -60.5 -6t-61.5 -2q-29 0 -56.5 2t-52.5 6zM600 524h404l137 781h-13z" />
<glyph unicode="&#xc7;" horiz-adv-x="1181" d="M233 545q0 184 51.5 356t153 304t251 212t343.5 80q109 0 186.5 -15.5t131.5 -37.5q-10 -47 -23.5 -86t-40.5 -86q-59 23 -116.5 33t-131.5 10q-152 0 -262 -63.5t-181 -169t-104.5 -240.5t-33.5 -279q0 -199 98 -301t281 -102q78 0 144.5 14t133.5 43q18 -35 28.5 -80 t14.5 -94q-72 -33 -166 -48t-174 -20l-53 -94q20 4 43 4q86 0 132 -45t46 -114q0 -63 -24.5 -105.5t-65.5 -68t-93 -36t-108 -10.5q-63 0 -111 12.5t-71 26.5q4 27 16.5 58.5t28.5 54.5q31 -10 68 -19.5t67 -9.5q20 0 44 2t44.5 10.5t33.5 25t13 44.5q0 39 -31.5 54.5 t-86.5 15.5q-29 0 -56.5 -4t-56.5 -10l-10 10l108 205q-223 27 -342 174t-119 389z" />
<glyph unicode="&#xc8;" horiz-adv-x="1073" d="M188 0l258 1473h781q0 -92 -33 -185h-569l-74 -420h455q0 -94 -33 -184h-455l-44 -251l-44 -251h586l-10.5 -92t-22.5 -90h-795zM559 1825q25 4 64.5 6t78.5 2q35 0 67.5 -2t55.5 -6l186 -232q-16 -4 -44.5 -7t-57.5 -3q-33 0 -59.5 2t-45.5 6z" />
<glyph unicode="&#xc9;" horiz-adv-x="1073" d="M188 0l258 1473h781q0 -92 -33 -185h-569l-74 -420h455q0 -94 -33 -184h-455l-44 -251l-44 -251h586l-10.5 -92t-22.5 -90h-795zM707 1593l250 224q25 4 58.5 6t68.5 2q37 0 75.5 -2t61.5 -6l-297 -226q-20 -4 -52 -5t-65 -1q-29 0 -56.5 2t-43.5 6z" />
<glyph unicode="&#xca;" horiz-adv-x="1073" d="M188 0l258 1473h781q0 -92 -33 -185h-569l-74 -420h455q0 -94 -33 -184h-455l-44 -251l-44 -251h586l-10.5 -92t-22.5 -90h-795zM522 1595l260 226q27 4 60.5 6t62.5 2q20 0 50 -2t56 -6l168 -226q-23 -4 -47 -6t-51 -2q-23 0 -50.5 2t-54.5 8l-92 123l-141 -125 q-27 -4 -58.5 -6t-56.5 -2q-29 0 -56 2t-50 6z" />
<glyph unicode="&#xcb;" horiz-adv-x="1073" d="M188 0l258 1473h781q0 -92 -33 -185h-569l-74 -420h455q0 -94 -33 -184h-455l-44 -251l-44 -251h586l-10.5 -92t-22.5 -90h-795zM535 1593q0 106 35 207q29 4 56.5 6t51.5 2q27 0 55.5 -2t51.5 -6q0 -106 -35 -207q-29 -4 -56.5 -6t-54.5 -2q-25 0 -52 2t-52 6zM973 1593 q0 102 35 207q27 4 55.5 6t53.5 2q27 0 54 -2t52 -6q-4 -104 -35 -207q-29 -4 -56.5 -6t-53.5 -2q-25 0 -53.5 2t-51.5 6z" />
<glyph unicode="&#xcc;" horiz-adv-x="589" d="M190 0l259 1473q27 4 53 6t53 2q29 0 54.5 -2t49.5 -6l-258 -1473q-29 -4 -54 -6t-54 -2t-54.5 2t-48.5 6zM279 1825q25 4 64.5 6t78.5 2q35 0 67.5 -2t55.5 -6l186 -232q-16 -4 -44.5 -7t-57.5 -3q-33 0 -59.5 2t-45.5 6z" />
<glyph unicode="&#xcd;" horiz-adv-x="589" d="M190 0l259 1473q27 4 53 6t53 2q29 0 54.5 -2t49.5 -6l-258 -1473q-29 -4 -54 -6t-54 -2t-54.5 2t-48.5 6zM393 1593l250 224q25 4 58.5 6t68.5 2q37 0 75.5 -2t61.5 -6l-297 -226q-20 -4 -52 -5t-65 -1q-29 0 -56.5 2t-43.5 6z" />
<glyph unicode="&#xce;" horiz-adv-x="589" d="M190 0l259 1473q27 4 53 6t53 2q29 0 54.5 -2t49.5 -6l-258 -1473q-29 -4 -54 -6t-54 -2t-54.5 2t-48.5 6zM246 1595l260 226q27 4 60.5 6t62.5 2q20 0 50 -2t56 -6l168 -226q-23 -4 -47 -6t-51 -2q-23 0 -50.5 2t-54.5 8l-92 123l-141 -125q-27 -4 -58.5 -6t-56.5 -2 q-29 0 -56 2t-50 6z" />
<glyph unicode="&#xcf;" horiz-adv-x="589" d="M190 0l259 1473q27 4 53 6t53 2q29 0 54.5 -2t49.5 -6l-258 -1473q-29 -4 -54 -6t-54 -2t-54.5 2t-48.5 6zM248 1593q0 106 35 207q29 4 56.5 6t51.5 2q27 0 55.5 -2t51.5 -6q0 -106 -35 -207q-29 -4 -56.5 -6t-54.5 -2q-25 0 -52 2t-52 6zM686 1593q0 102 35 207 q27 4 55.5 6t53.5 2q27 0 54 -2t52 -6q-4 -104 -35 -207q-29 -4 -56.5 -6t-53.5 -2q-25 0 -53.5 2t-51.5 6z" />
<glyph unicode="&#xd0;" horiz-adv-x="1425" d="M184 692q0 41 5.5 79t19.5 75h156l110 627q33 4 74 8t84 7t84 5t78 2q172 0 297 -43t204.5 -122t117.5 -189.5t38 -245.5q0 -195 -57.5 -361.5t-169 -291.5t-275.5 -196t-379 -71q-111 0 -201.5 7.5t-152.5 17.5l121 692h-154zM457 172q27 -4 75 -7t93 -3q141 0 253.5 53 t191.5 147.5t120 223.5t41 280q0 217 -98.5 332t-323.5 115q-41 0 -80 -3t-72 -7l-82 -457h353q0 -39 -5 -78t-20 -76h-354z" />
<glyph unicode="&#xd1;" horiz-adv-x="1370" d="M188 0l258 1473q23 4 50.5 5t50.5 1q51 0 92 -6l414 -1111l192 1111l40 4q19 2 40 2h49l66 -6l-258 -1473q-23 -4 -48.5 -5t-50.5 -1q-23 0 -46 1t-46 5l-416 1104l-190 -1104q-41 -6 -80 -6h-51zM635 1737q39 41 93 71.5t120 30.5q43 0 78 -11t67.5 -25.5t66.5 -26 t75 -11.5q35 0 62.5 11.5t68.5 46.5q16 -20 35.5 -53t23.5 -62q-41 -37 -95 -67.5t-120 -30.5q-43 0 -78 11t-67.5 24.5t-66.5 24.5t-70 11q-39 0 -67 -12t-67 -43q-18 20 -36.5 51t-22.5 60z" />
<glyph unicode="&#xd2;" horiz-adv-x="1435" d="M229 516q0 188 49.5 365.5t144.5 313.5t234.5 219t317.5 83q123 0 215 -41t151.5 -112.5t89 -172t29.5 -219.5q0 -193 -50 -368.5t-145.5 -311t-233.5 -216.5t-316 -81q-123 0 -214 39t-151.5 110t-90.5 171t-30 221zM446 518q0 -172 71 -267t220 -95q121 0 214 70.5 t158 184t98.5 256t33.5 283.5q0 166 -68.5 264.5t-222.5 98.5q-123 0 -217 -69.5t-157.5 -182.5t-96.5 -255.5t-33 -287.5zM748 1825q25 4 64.5 6t78.5 2q35 0 67.5 -2t55.5 -6l186 -232q-16 -4 -44.5 -7t-57.5 -3q-33 0 -59.5 2t-45.5 6z" />
<glyph unicode="&#xd3;" horiz-adv-x="1435" d="M229 516q0 188 49.5 365.5t144.5 313.5t234.5 219t317.5 83q123 0 215 -41t151.5 -112.5t89 -172t29.5 -219.5q0 -193 -50 -368.5t-145.5 -311t-233.5 -216.5t-316 -81q-123 0 -214 39t-151.5 110t-90.5 171t-30 221zM446 518q0 -172 71 -267t220 -95q121 0 214 70.5 t158 184t98.5 256t33.5 283.5q0 166 -68.5 264.5t-222.5 98.5q-123 0 -217 -69.5t-157.5 -182.5t-96.5 -255.5t-33 -287.5zM809 1593l250 224q25 4 58.5 6t68.5 2q37 0 75.5 -2t61.5 -6l-297 -226q-20 -4 -52 -5t-65 -1q-29 0 -56.5 2t-43.5 6z" />
<glyph unicode="&#xd4;" horiz-adv-x="1435" d="M229 516q0 188 49.5 365.5t144.5 313.5t234.5 219t317.5 83q123 0 215 -41t151.5 -112.5t89 -172t29.5 -219.5q0 -193 -50 -368.5t-145.5 -311t-233.5 -216.5t-316 -81q-123 0 -214 39t-151.5 110t-90.5 171t-30 221zM446 518q0 -172 71 -267t220 -95q121 0 214 70.5 t158 184t98.5 256t33.5 283.5q0 166 -68.5 264.5t-222.5 98.5q-123 0 -217 -69.5t-157.5 -182.5t-96.5 -255.5t-33 -287.5zM656 1595l260 226q27 4 60.5 6t62.5 2q20 0 50 -2t56 -6l168 -226q-23 -4 -47 -6t-51 -2q-23 0 -50.5 2t-54.5 8l-92 123l-141 -125q-27 -4 -58.5 -6 t-56.5 -2q-29 0 -56 2t-50 6z" />
<glyph unicode="&#xd5;" horiz-adv-x="1435" d="M229 516q0 188 49.5 365.5t144.5 313.5t234.5 219t317.5 83q123 0 215 -41t151.5 -112.5t89 -172t29.5 -219.5q0 -193 -50 -368.5t-145.5 -311t-233.5 -216.5t-316 -81q-123 0 -214 39t-151.5 110t-90.5 171t-30 221zM446 518q0 -172 71 -267t220 -95q121 0 214 70.5 t158 184t98.5 256t33.5 283.5q0 166 -68.5 264.5t-222.5 98.5q-123 0 -217 -69.5t-157.5 -182.5t-96.5 -255.5t-33 -287.5zM680 1737q39 41 93 71.5t120 30.5q43 0 78 -11t67.5 -25.5t66.5 -26t75 -11.5q35 0 62.5 11.5t68.5 46.5q16 -20 35.5 -53t23.5 -62 q-41 -37 -95 -67.5t-120 -30.5q-43 0 -78 11t-67.5 24.5t-66.5 24.5t-70 11q-39 0 -67 -12t-67 -43q-18 20 -36.5 51t-22.5 60z" />
<glyph unicode="&#xd6;" horiz-adv-x="1435" d="M229 516q0 188 49.5 365.5t144.5 313.5t234.5 219t317.5 83q123 0 215 -41t151.5 -112.5t89 -172t29.5 -219.5q0 -193 -50 -368.5t-145.5 -311t-233.5 -216.5t-316 -81q-123 0 -214 39t-151.5 110t-90.5 171t-30 221zM446 518q0 -172 71 -267t220 -95q121 0 214 70.5 t158 184t98.5 256t33.5 283.5q0 166 -68.5 264.5t-222.5 98.5q-123 0 -217 -69.5t-157.5 -182.5t-96.5 -255.5t-33 -287.5zM674 1593q0 106 35 207q29 4 56.5 6t51.5 2q27 0 55.5 -2t51.5 -6q0 -106 -35 -207q-29 -4 -56.5 -6t-54.5 -2q-25 0 -52 2t-52 6zM1112 1593 q0 102 35 207q27 4 55.5 6t53.5 2q27 0 54 -2t52 -6q-4 -104 -35 -207q-29 -4 -56.5 -6t-53.5 -2q-25 0 -53.5 2t-51.5 6z" />
<glyph unicode="&#xd7;" d="M317 483l293 248l-198 242q33 35 70.5 68.5t82.5 62.5l199 -244l289 248q35 -29 66.5 -68t51.5 -77l-288 -248l196 -238q-31 -37 -70.5 -69.5t-80.5 -57.5l-197 238l-295 -250q-37 27 -66.5 65.5t-52.5 79.5z" />
<glyph unicode="&#xd8;" horiz-adv-x="1435" d="M168 -31l151 195q-90 135 -90 352q0 188 49.5 365.5t144.5 313.5t234.5 219t317.5 83q190 0 307 -98l72 92q16 4 39.5 6t44.5 2q47 0 80 -8l-148 -188q90 -139 90 -351q0 -193 -50 -368.5t-145.5 -311t-233.5 -216.5t-316 -81q-188 0 -305 93l-78 -99q-33 -8 -78 -8 q-20 0 -45 2t-41 6zM446 518q0 -92 25 -160l684 877q-74 78 -205 78q-123 0 -217 -69.5t-157.5 -182.5t-96.5 -255.5t-33 -287.5zM535 231q72 -76 202 -75q121 0 214 70.5t158 184t98.5 256t33.5 283.5q0 92 -22 158z" />
<glyph unicode="&#xd9;" horiz-adv-x="1357" d="M258 387q0 47 6 100.5t17 112.5l153 873q27 4 54.5 6t54.5 2t52.5 -2t49.5 -6l-147 -836q-25 -141 -25 -240q0 -125 52.5 -179t181.5 -54q88 0 150.5 29.5t105.5 89t71.5 148.5t48.5 206l146 836q29 4 54.5 6t53.5 2q25 0 52.5 -2t50.5 -6l-156 -887q-27 -147 -71 -262 t-114.5 -192t-174 -117t-248.5 -40q-211 0 -314.5 100.5t-103.5 311.5zM668 1825q25 4 64.5 6t78.5 2q35 0 67.5 -2t55.5 -6l186 -232q-16 -4 -44.5 -7t-57.5 -3q-33 0 -59.5 2t-45.5 6z" />
<glyph unicode="&#xda;" horiz-adv-x="1357" d="M258 387q0 47 6 100.5t17 112.5l153 873q27 4 54.5 6t54.5 2t52.5 -2t49.5 -6l-147 -836q-25 -141 -25 -240q0 -125 52.5 -179t181.5 -54q88 0 150.5 29.5t105.5 89t71.5 148.5t48.5 206l146 836q29 4 54.5 6t53.5 2q25 0 52.5 -2t50.5 -6l-156 -887q-27 -147 -71 -262 t-114.5 -192t-174 -117t-248.5 -40q-211 0 -314.5 100.5t-103.5 311.5zM791 1593l250 224q25 4 58.5 6t68.5 2q37 0 75.5 -2t61.5 -6l-297 -226q-20 -4 -52 -5t-65 -1q-29 0 -56.5 2t-43.5 6z" />
<glyph unicode="&#xdb;" horiz-adv-x="1357" d="M258 387q0 47 6 100.5t17 112.5l153 873q27 4 54.5 6t54.5 2t52.5 -2t49.5 -6l-147 -836q-25 -141 -25 -240q0 -125 52.5 -179t181.5 -54q88 0 150.5 29.5t105.5 89t71.5 148.5t48.5 206l146 836q29 4 54.5 6t53.5 2q25 0 52.5 -2t50.5 -6l-156 -887q-27 -147 -71 -262 t-114.5 -192t-174 -117t-248.5 -40q-211 0 -314.5 100.5t-103.5 311.5zM629 1595l260 226q27 4 60.5 6t62.5 2q20 0 50 -2t56 -6l168 -226q-23 -4 -47 -6t-51 -2q-23 0 -50.5 2t-54.5 8l-92 123l-141 -125q-27 -4 -58.5 -6t-56.5 -2q-29 0 -56 2t-50 6z" />
<glyph unicode="&#xdc;" horiz-adv-x="1357" d="M258 387q0 47 6 100.5t17 112.5l153 873q27 4 54.5 6t54.5 2t52.5 -2t49.5 -6l-147 -836q-25 -141 -25 -240q0 -125 52.5 -179t181.5 -54q88 0 150.5 29.5t105.5 89t71.5 148.5t48.5 206l146 836q29 4 54.5 6t53.5 2q25 0 52.5 -2t50.5 -6l-156 -887q-27 -147 -71 -262 t-114.5 -192t-174 -117t-248.5 -40q-211 0 -314.5 100.5t-103.5 311.5zM643 1593q0 106 35 207q29 4 56.5 6t51.5 2q27 0 55.5 -2t51.5 -6q0 -106 -35 -207q-29 -4 -56.5 -6t-54.5 -2q-25 0 -52 2t-52 6zM1081 1593q0 102 35 207q27 4 55.5 6t53.5 2q27 0 54 -2t52 -6 q-4 -104 -35 -207q-29 -4 -56.5 -6t-53.5 -2q-25 0 -53.5 2t-51.5 6z" />
<glyph unicode="&#xdd;" horiz-adv-x="1124" d="M272 1473q29 4 67 5t73 1q43 0 84 -6l196 -723l422 723q55 6 117 6q27 0 56.5 -1t51.5 -5l-579 -943l-92 -530q-55 -6 -109 -6q-57 0 -102 6l96 537zM680 1593l250 224q25 4 58.5 6t68.5 2q37 0 75.5 -2t61.5 -6l-297 -226q-20 -4 -52 -5t-65 -1q-29 0 -56.5 2t-43.5 6z " />
<glyph unicode="&#xde;" horiz-adv-x="1181" d="M197 0l258 1473q49 6 100 6q29 0 57.5 -1t51.5 -5l-41 -230q27 2 49 2h45q98 0 187 -20.5t156.5 -68.5t107.5 -125t40 -189q0 -133 -45 -237.5t-127 -176.5t-196.5 -109.5t-253.5 -37.5q-41 0 -69 2t-60 4l-51 -287q-33 -4 -61 -5t-58 -1q-23 0 -47.5 2t-42.5 4zM487 467 q29 -4 53.5 -5t71.5 -1q82 0 152 21.5t119 66.5t76.5 114.5t27.5 165.5q0 74 -23.5 120t-61.5 72t-88 36t-103 10h-34q-13 0 -27 -1l-26 -2q-13 -1 -34 -3z" />
<glyph unicode="&#xdf;" horiz-adv-x="1183" d="M-236 -475q8 49 20.5 87t33.5 75q20 -8 45.5 -13.5t52.5 -5.5q45 0 83 10.5t67.5 41t51 87t38.5 148.5l194 1116q20 123 57 208t94.5 138t137.5 78t184 25q90 0 157 -22.5t110 -62.5t64.5 -92.5t21.5 -113.5q0 -98 -42 -167t-93 -123l-92 -103q-42 -49 -42 -109 q0 -51 38 -89l84 -81q46 -43 85 -100.5t39 -145.5q0 -76 -28.5 -138t-80 -106t-123 -68t-157.5 -24q-78 0 -142.5 12.5t-113.5 35.5q10 37 27.5 77.5t39.5 81.5q41 -18 91.5 -29.5t99.5 -11.5q74 0 131 38t57 116q0 66 -38.5 105.5t-85 77.5t-85 86t-38.5 130q0 80 43 140.5 t94 117t94 116.5t43 138q0 72 -52 110t-132 38q-55 0 -96.5 -14.5t-70 -49.5t-48 -92t-33.5 -141l-195 -1118q-23 -123 -59.5 -206t-90.5 -135.5t-124 -75t-158 -22.5q-45 0 -85 7.5t-73 17.5z" />
<glyph unicode="&#xe0;" horiz-adv-x="1134" d="M168 307q0 145 45 283.5t133 246t219 173t305 65.5q74 0 149 -11t132 -32l-102 -586q-23 -123 -36.5 -211t-13.5 -153q0 -27 1 -42t6 -38q-23 -4 -49.5 -6t-49.5 -2q-20 0 -44.5 2t-47.5 6q-4 23 -6 46.5t-2 57.5q0 23 5 62t11 70q-23 -45 -59.5 -91.5t-84.5 -84 t-108.5 -62.5t-130.5 -25q-135 0 -203.5 89t-68.5 243zM379 350q0 -98 35 -152.5t104 -54.5q63 0 122.5 41t109 114t85 170t56.5 208l41 219q-25 6 -51.5 8t-59.5 2q-102 0 -183 -47t-139.5 -126t-89 -178.5t-30.5 -203.5zM565 1477q31 4 61.5 6t65.5 2t68.5 -2t64.5 -6 l189 -260q-47 -8 -99 -9q-31 0 -57.5 2t-48.5 7z" />
<glyph unicode="&#xe1;" horiz-adv-x="1134" d="M168 307q0 145 45 283.5t133 246t219 173t305 65.5q74 0 149 -11t132 -32l-102 -586q-23 -123 -36.5 -211t-13.5 -153q0 -27 1 -42t6 -38q-23 -4 -49.5 -6t-49.5 -2q-20 0 -44.5 2t-47.5 6q-4 23 -6 46.5t-2 57.5q0 23 5 62t11 70q-23 -45 -59.5 -91.5t-84.5 -84 t-108.5 -62.5t-130.5 -25q-135 0 -203.5 89t-68.5 243zM379 350q0 -98 35 -152.5t104 -54.5q63 0 122.5 41t109 114t85 170t56.5 208l41 219q-25 6 -51.5 8t-59.5 2q-102 0 -183 -47t-139.5 -126t-89 -178.5t-30.5 -203.5zM713 1217l199 260q33 4 65.5 6t67.5 2t65.5 -2 t61.5 -6l-254 -260q-23 -4 -50.5 -6.5t-58.5 -2.5q-23 0 -47 2.5t-49 6.5z" />
<glyph unicode="&#xe2;" horiz-adv-x="1134" d="M168 307q0 145 45 283.5t133 246t219 173t305 65.5q74 0 149 -11t132 -32l-102 -586q-23 -123 -36.5 -211t-13.5 -153q0 -27 1 -42t6 -38q-23 -4 -49.5 -6t-49.5 -2q-20 0 -44.5 2t-47.5 6q-4 23 -6 46.5t-2 57.5q0 23 5 62t11 70q-23 -45 -59.5 -91.5t-84.5 -84 t-108.5 -62.5t-130.5 -25q-135 0 -203.5 89t-68.5 243zM379 350q0 -98 35 -152.5t104 -54.5q63 0 122.5 41t109 114t85 170t56.5 208l41 219q-25 6 -51.5 8t-59.5 2q-102 0 -183 -47t-139.5 -126t-89 -178.5t-30.5 -203.5zM503 1217l254 260q25 4 59 6t62 2q23 0 57.5 -2 t61.5 -8l152 -258q-18 -4 -42 -6.5t-51 -2.5q-25 0 -53.5 2t-52.5 7l-84 161l-143 -161q-25 -4 -56.5 -6.5t-56.5 -2.5q-29 0 -58 2.5t-49 6.5z" />
<glyph unicode="&#xe3;" horiz-adv-x="1134" d="M168 307q0 145 45 283.5t133 246t219 173t305 65.5q74 0 149 -11t132 -32l-102 -586q-23 -123 -36.5 -211t-13.5 -153q0 -27 1 -42t6 -38q-23 -4 -49.5 -6t-49.5 -2q-20 0 -44.5 2t-47.5 6q-4 23 -6 46.5t-2 57.5q0 23 5 62t11 70q-23 -45 -59.5 -91.5t-84.5 -84 t-108.5 -62.5t-130.5 -25q-135 0 -203.5 89t-68.5 243zM379 350q0 -98 35 -152.5t104 -54.5q63 0 122.5 41t109 114t85 170t56.5 208l41 219q-25 6 -51.5 8t-59.5 2q-102 0 -183 -47t-139.5 -126t-89 -178.5t-30.5 -203.5zM498 1352q39 41 93 71.5t120 30.5q43 0 77.5 -11 t67.5 -24.5t67 -25t74 -11.5q35 0 64 10.5t70 45.5q16 -20 34.5 -52t22.5 -63q-39 -37 -94.5 -67.5t-120.5 -30.5q-43 0 -78 11t-67.5 25.5t-66.5 25.5t-71 11q-39 0 -66.5 -13t-66.5 -44q-18 20 -36.5 51t-22.5 60z" />
<glyph unicode="&#xe4;" horiz-adv-x="1134" d="M168 307q0 145 45 283.5t133 246t219 173t305 65.5q74 0 149 -11t132 -32l-102 -586q-23 -123 -36.5 -211t-13.5 -153q0 -27 1 -42t6 -38q-23 -4 -49.5 -6t-49.5 -2q-20 0 -44.5 2t-47.5 6q-4 23 -6 46.5t-2 57.5q0 23 5 62t11 70q-23 -45 -59.5 -91.5t-84.5 -84 t-108.5 -62.5t-130.5 -25q-135 0 -203.5 89t-68.5 243zM379 350q0 -98 35 -152.5t104 -54.5q63 0 122.5 41t109 114t85 170t56.5 208l41 219q-25 6 -51.5 8t-59.5 2q-102 0 -183 -47t-139.5 -126t-89 -178.5t-30.5 -203.5zM514 1237q2 53 10.5 103.5t26.5 101.5q27 4 54.5 6 t50.5 2t51 -2t53 -6q-2 -53 -10 -103.5t-27 -101.5q-53 -6 -104 -6q-23 0 -51.5 1t-53.5 5zM932 1237q2 53 9 103.5t28 101.5q25 4 52.5 6t51.5 2q23 0 51.5 -2t53.5 -6q-4 -53 -12.5 -102.5t-24.5 -102.5q-53 -6 -104 -6q-23 0 -51.5 1t-53.5 5z" />
<glyph unicode="&#xe5;" horiz-adv-x="1134" d="M168 307q0 145 45 283.5t133 246t219 173t305 65.5q74 0 149 -11t132 -32l-102 -586q-23 -123 -36.5 -211t-13.5 -153q0 -27 1 -42t6 -38q-23 -4 -49.5 -6t-49.5 -2q-20 0 -44.5 2t-47.5 6q-4 23 -6 46.5t-2 57.5q0 23 5 62t11 70q-23 -45 -59.5 -91.5t-84.5 -84 t-108.5 -62.5t-130.5 -25q-135 0 -203.5 89t-68.5 243zM379 350q0 -98 35 -152.5t104 -54.5q63 0 122.5 41t109 114t85 170t56.5 208l41 219q-25 6 -51.5 8t-59.5 2q-102 0 -183 -47t-139.5 -126t-89 -178.5t-30.5 -203.5zM682 1395q0 49 16.5 93t47 77.5t73.5 54t96 20.5 q92 0 145.5 -54t53.5 -148q0 -49 -17.5 -93.5t-49 -76t-74.5 -50t-94 -18.5q-92 0 -144.5 53.5t-52.5 141.5zM803 1407q0 -47 20.5 -74.5t65.5 -27.5q47 0 74.5 34.5t27.5 94.5q0 47 -19.5 74.5t-64.5 27.5q-51 0 -77.5 -39t-26.5 -90z" />
<glyph unicode="&#xe6;" horiz-adv-x="1689" d="M168 307q0 143 45 281.5t132 247t217 174t300 65.5q66 0 133.5 -11t124.5 -30q-6 -29 -11 -58.5t-9 -57.5q63 68 151 112.5t203 44.5q129 0 206 -66.5t77 -177.5q0 -90 -44 -156.5t-122 -113.5t-183.5 -77.5t-230.5 -49.5l-106 -16q0 -125 63.5 -201t198.5 -76 q82 0 155.5 19.5t133.5 42.5q20 -31 27 -74t7 -86q-31 -14 -74.5 -26.5t-92 -21.5t-97.5 -14.5t-90 -5.5q-96 0 -167 20.5t-120 57.5t-77.5 87t-43.5 110q-80 -131 -184 -203t-233 -72q-147 0 -218 89t-71 243zM377 350q0 -98 36 -152.5t103 -54.5q66 0 125 41t108.5 113 t85 169t56.5 210l39 217q-49 12 -111 12q-102 0 -183 -48t-139.5 -126t-89 -177.5t-30.5 -203.5zM1067 569l113 19q104 16 172.5 39.5t108.5 51.5t56.5 58.5t16.5 65.5q0 49 -34 80.5t-95 31.5q-66 0 -121 -28.5t-98 -76.5t-73 -110.5t-46 -130.5z" />
<glyph unicode="&#xe7;" horiz-adv-x="940" d="M180 395q0 123 40 245t119 219t192.5 156.5t261.5 59.5q68 0 129 -12t106 -29q-2 -39 -16.5 -85t-36.5 -81q-41 16 -89 27.5t-102 11.5q-100 0 -173.5 -44t-123 -114.5t-73 -158.5t-23.5 -174q0 -139 68.5 -206t189.5 -67q53 0 105.5 9.5t107.5 31.5q16 -29 25.5 -68.5 t9.5 -90.5q-57 -23 -130 -35.5t-136 -14.5l-51 -94q8 2 17 3t24 1q86 0 132 -45t46 -114q0 -63 -24.5 -105.5t-65.5 -68t-93.5 -36t-107.5 -10.5q-63 0 -111.5 12.5t-70.5 26.5q6 27 17 58.5t30 54.5q29 -10 65.5 -19.5t69.5 -9.5q20 0 43.5 2t44 10.5t34 25t13.5 44.5 q0 39 -32.5 54.5t-86.5 15.5q-29 0 -57.5 -4t-54.5 -10l-11 10l111 207q-172 25 -252 131t-80 280z" />
<glyph unicode="&#xe8;" horiz-adv-x="1019" d="M178 395q0 125 42 247t121 218t188.5 155.5t244.5 59.5t214 -66.5t79 -177.5q0 -90 -44 -156.5t-122 -113.5t-183.5 -77.5t-230.5 -49.5l-106 -16q6 -137 69.5 -207t196.5 -70q82 0 156 19.5t133 42.5q18 -31 26.5 -74t8.5 -86q-31 -14 -75 -26.5t-92 -21.5t-97.5 -14.5 t-90.5 -5.5q-121 0 -203.5 32t-135 88.5t-76 133t-23.5 166.5zM397 569l113 21q104 18 173 41.5t110 51.5t57 58.5t16 67.5q0 47 -32.5 76.5t-94.5 29.5q-66 0 -121 -29.5t-99 -77.5t-75 -110.5t-47 -128.5zM489 1477q31 4 61.5 6t65.5 2t68.5 -2t64.5 -6l189 -260 q-47 -8 -99 -9q-31 0 -57.5 2t-48.5 7z" />
<glyph unicode="&#xe9;" horiz-adv-x="1019" d="M178 395q0 125 42 247t121 218t188.5 155.5t244.5 59.5t214 -66.5t79 -177.5q0 -90 -44 -156.5t-122 -113.5t-183.5 -77.5t-230.5 -49.5l-106 -16q6 -137 69.5 -207t196.5 -70q82 0 156 19.5t133 42.5q18 -31 26.5 -74t8.5 -86q-31 -14 -75 -26.5t-92 -21.5t-97.5 -14.5 t-90.5 -5.5q-121 0 -203.5 32t-135 88.5t-76 133t-23.5 166.5zM397 569l113 21q104 18 173 41.5t110 51.5t57 58.5t16 67.5q0 47 -32.5 76.5t-94.5 29.5q-66 0 -121 -29.5t-99 -77.5t-75 -110.5t-47 -128.5zM614 1217l199 260q33 4 65.5 6t67.5 2t65.5 -2t61.5 -6l-254 -260 q-23 -4 -50.5 -6.5t-58.5 -2.5q-23 0 -47 2.5t-49 6.5z" />
<glyph unicode="&#xea;" horiz-adv-x="1019" d="M178 395q0 125 42 247t121 218t188.5 155.5t244.5 59.5t214 -66.5t79 -177.5q0 -90 -44 -156.5t-122 -113.5t-183.5 -77.5t-230.5 -49.5l-106 -16q6 -137 69.5 -207t196.5 -70q82 0 156 19.5t133 42.5q18 -31 26.5 -74t8.5 -86q-31 -14 -75 -26.5t-92 -21.5t-97.5 -14.5 t-90.5 -5.5q-121 0 -203.5 32t-135 88.5t-76 133t-23.5 166.5zM397 569l113 21q104 18 173 41.5t110 51.5t57 58.5t16 67.5q0 47 -32.5 76.5t-94.5 29.5q-66 0 -121 -29.5t-99 -77.5t-75 -110.5t-47 -128.5zM423 1217l254 260q25 4 59 6t62 2q23 0 57.5 -2t61.5 -8l152 -258 q-18 -4 -42 -6.5t-51 -2.5q-25 0 -53.5 2t-52.5 7l-84 161l-143 -161q-25 -4 -56.5 -6.5t-56.5 -2.5q-29 0 -58 2.5t-49 6.5z" />
<glyph unicode="&#xeb;" horiz-adv-x="1019" d="M178 395q0 125 42 247t121 218t188.5 155.5t244.5 59.5t214 -66.5t79 -177.5q0 -90 -44 -156.5t-122 -113.5t-183.5 -77.5t-230.5 -49.5l-106 -16q6 -137 69.5 -207t196.5 -70q82 0 156 19.5t133 42.5q18 -31 26.5 -74t8.5 -86q-31 -14 -75 -26.5t-92 -21.5t-97.5 -14.5 t-90.5 -5.5q-121 0 -203.5 32t-135 88.5t-76 133t-23.5 166.5zM397 569l113 21q104 18 173 41.5t110 51.5t57 58.5t16 67.5q0 47 -32.5 76.5t-94.5 29.5q-66 0 -121 -29.5t-99 -77.5t-75 -110.5t-47 -128.5zM428 1237q2 53 10.5 103.5t26.5 101.5q27 4 54.5 6t50.5 2t51 -2 t53 -6q-2 -53 -10 -103.5t-27 -101.5q-53 -6 -104 -6q-23 0 -51.5 1t-53.5 5zM846 1237q2 53 9 103.5t28 101.5q25 4 52.5 6t51.5 2q23 0 51.5 -2t53.5 -6q-4 -53 -12.5 -102.5t-24.5 -102.5q-53 -6 -104 -6q-23 0 -51.5 1t-53.5 5z" />
<glyph unicode="&#xec;" horiz-adv-x="583" d="M215 1477q31 4 61.5 6t65.5 2t68.5 -2t64.5 -6l189 -260q-47 -8 -99 -9q-31 0 -57.5 2t-48.5 7zM213 0l156 889h-127q0 41 5 80t21 82h328l-184 -1051q-23 -4 -52.5 -5t-52.5 -1t-47 1t-47 5z" />
<glyph unicode="&#xed;" horiz-adv-x="583" d="M313 1217l199 260q33 4 65.5 6t67.5 2t65.5 -2t61.5 -6l-254 -260q-23 -4 -50.5 -6.5t-58.5 -2.5q-23 0 -47 2.5t-49 6.5zM213 0l156 889h-127q0 41 5 80t21 82h328l-184 -1051q-23 -4 -52.5 -5t-52.5 -1t-47 1t-47 5z" />
<glyph unicode="&#xee;" horiz-adv-x="583" d="M213 0l156 889h-127q0 41 5 80t21 82h328l-184 -1051q-23 -4 -52.5 -5t-52.5 -1t-47 1t-47 5zM145 1217l254 260q25 4 59 6t62 2q23 0 57.5 -2t61.5 -8l152 -258q-18 -4 -42 -6.5t-51 -2.5q-25 0 -53.5 2t-52.5 7l-84 161l-143 -161q-25 -4 -56.5 -6.5t-56.5 -2.5 q-29 0 -58 2.5t-49 6.5z" />
<glyph unicode="&#xef;" horiz-adv-x="583" d="M157 1237q2 53 10.5 103.5t26.5 101.5q27 4 54.5 6t50.5 2t51 -2t53 -6q-2 -53 -10 -103.5t-27 -101.5q-53 -6 -104 -6q-23 0 -51.5 1t-53.5 5zM575 1237q2 53 9 103.5t28 101.5q25 4 52.5 6t51.5 2q23 0 51.5 -2t53.5 -6q-4 -53 -12.5 -102.5t-24.5 -102.5 q-53 -6 -104 -6q-23 0 -51.5 1t-53.5 5zM213 0l156 889h-127q0 41 5 80t21 82h328l-184 -1051q-23 -4 -52.5 -5t-52.5 -1t-47 1t-47 5z" />
<glyph unicode="&#xf0;" horiz-adv-x="1157" d="M178 381q0 111 33 221.5t97.5 197.5t161.5 142t226 55q92 0 165 -37.5t114 -97.5q-4 109 -35 195t-84 145l-211 -119q-23 20 -39 51t-20 60l166 94q-90 51 -203 58q0 35 9 75.5t36 87.5q104 -6 191 -35.5t147 -76.5l205 112q23 -20 39 -49.5t22 -60.5l-170 -94 q74 -92 108.5 -225.5t34.5 -284.5q0 -141 -30.5 -287t-101 -263.5t-186.5 -193.5t-284 -76q-102 0 -177 31t-122 85t-69.5 129t-22.5 161zM385 387q0 -115 47 -183.5t162 -68.5q82 0 144.5 40t105.5 101.5t65.5 137t22.5 149.5q0 131 -55.5 204t-171.5 73q-86 0 -146.5 -44 t-99.5 -112t-56.5 -147.5t-17.5 -149.5z" />
<glyph unicode="&#xf1;" horiz-adv-x="1177" d="M182 0l109 608q23 123 36 211t13 154q0 27 -1 42t-5 38q23 4 49.5 6t48.5 2q20 0 46 -2t46 -6q4 -16 6 -38t2 -57q0 -39 -5 -73.5t-11 -67.5q20 43 57 89t86.5 83t109.5 61.5t128 24.5q123 0 191.5 -65.5t68.5 -202.5q0 -31 -4 -69t-10 -72l-117 -666q-25 -4 -53.5 -6 t-50.5 -2q-23 0 -50.5 2t-48.5 6l111 631q6 33 9 63.5t3 53.5q0 82 -38 116.5t-101 34.5q-55 0 -108.5 -34t-100.5 -99.5t-85 -161.5t-60 -221l-68 -383q-25 -4 -53.5 -6t-50.5 -2q-23 0 -51 2t-48 6zM455 1352q39 41 93 71.5t120 30.5q43 0 77.5 -11t67.5 -24.5t67 -25 t74 -11.5q35 0 64 10.5t70 45.5q16 -20 34.5 -52t22.5 -63q-39 -37 -94.5 -67.5t-120.5 -30.5q-43 0 -78 11t-67.5 25.5t-66.5 25.5t-71 11q-39 0 -66.5 -13t-66.5 -44q-18 20 -36.5 51t-22.5 60z" />
<glyph unicode="&#xf2;" horiz-adv-x="1140" d="M182 379q0 113 35 236.5t107.5 225t182 168t259.5 66.5q193 0 289 -106.5t96 -298.5q0 -115 -35 -238t-106.5 -224.5t-182 -167t-262.5 -65.5q-190 0 -286.5 105.5t-96.5 298.5zM389 377q0 -117 50 -178.5t147 -61.5q96 0 164.5 52.5t111.5 132t63.5 173t20.5 175.5 q0 117 -52 178t-149 61q-96 0 -163.5 -53t-110.5 -133t-62.5 -173t-19.5 -173zM563 1477q31 4 61.5 6t65.5 2t68.5 -2t64.5 -6l189 -260q-47 -8 -99 -9q-31 0 -57.5 2t-48.5 7z" />
<glyph unicode="&#xf3;" horiz-adv-x="1140" d="M182 379q0 113 35 236.5t107.5 225t182 168t259.5 66.5q193 0 289 -106.5t96 -298.5q0 -115 -35 -238t-106.5 -224.5t-182 -167t-262.5 -65.5q-190 0 -286.5 105.5t-96.5 298.5zM389 377q0 -117 50 -178.5t147 -61.5q96 0 164.5 52.5t111.5 132t63.5 173t20.5 175.5 q0 117 -52 178t-149 61q-96 0 -163.5 -53t-110.5 -133t-62.5 -173t-19.5 -173zM624 1217l199 260q33 4 65.5 6t67.5 2t65.5 -2t61.5 -6l-254 -260q-23 -4 -50.5 -6.5t-58.5 -2.5q-23 0 -47 2.5t-49 6.5z" />
<glyph unicode="&#xf4;" horiz-adv-x="1140" d="M182 379q0 113 35 236.5t107.5 225t182 168t259.5 66.5q193 0 289 -106.5t96 -298.5q0 -115 -35 -238t-106.5 -224.5t-182 -167t-262.5 -65.5q-190 0 -286.5 105.5t-96.5 298.5zM389 377q0 -117 50 -178.5t147 -61.5q96 0 164.5 52.5t111.5 132t63.5 173t20.5 175.5 q0 117 -52 178t-149 61q-96 0 -163.5 -53t-110.5 -133t-62.5 -173t-19.5 -173zM458 1217l254 260q25 4 59 6t62 2q23 0 57.5 -2t61.5 -8l152 -258q-18 -4 -42 -6.5t-51 -2.5q-25 0 -53.5 2t-52.5 7l-84 161l-143 -161q-25 -4 -56.5 -6.5t-56.5 -2.5q-29 0 -58 2.5t-49 6.5z " />
<glyph unicode="&#xf5;" horiz-adv-x="1140" d="M182 379q0 113 35 236.5t107.5 225t182 168t259.5 66.5q193 0 289 -106.5t96 -298.5q0 -115 -35 -238t-106.5 -224.5t-182 -167t-262.5 -65.5q-190 0 -286.5 105.5t-96.5 298.5zM389 377q0 -117 50 -178.5t147 -61.5q96 0 164.5 52.5t111.5 132t63.5 173t20.5 175.5 q0 117 -52 178t-149 61q-96 0 -163.5 -53t-110.5 -133t-62.5 -173t-19.5 -173zM441 1352q39 41 93 71.5t120 30.5q43 0 77.5 -11t67.5 -24.5t67 -25t74 -11.5q35 0 64 10.5t70 45.5q16 -20 34.5 -52t22.5 -63q-39 -37 -94.5 -67.5t-120.5 -30.5q-43 0 -78 11t-67.5 25.5 t-66.5 25.5t-71 11q-39 0 -66.5 -13t-66.5 -44q-18 20 -36.5 51t-22.5 60z" />
<glyph unicode="&#xf6;" horiz-adv-x="1140" d="M182 379q0 113 35 236.5t107.5 225t182 168t259.5 66.5q193 0 289 -106.5t96 -298.5q0 -115 -35 -238t-106.5 -224.5t-182 -167t-262.5 -65.5q-190 0 -286.5 105.5t-96.5 298.5zM389 377q0 -117 50 -178.5t147 -61.5q96 0 164.5 52.5t111.5 132t63.5 173t20.5 175.5 q0 117 -52 178t-149 61q-96 0 -163.5 -53t-110.5 -133t-62.5 -173t-19.5 -173zM475 1237q2 53 10.5 103.5t26.5 101.5q27 4 54.5 6t50.5 2t51 -2t53 -6q-2 -53 -10 -103.5t-27 -101.5q-53 -6 -104 -6q-23 0 -51.5 1t-53.5 5zM893 1237q2 53 9 103.5t28 101.5q25 4 52.5 6 t51.5 2q23 0 51.5 -2t53.5 -6q-4 -53 -12.5 -102.5t-24.5 -102.5q-53 -6 -104 -6q-23 0 -51.5 1t-53.5 5z" />
<glyph unicode="&#xf7;" d="M311 629q0 45 9.5 94t23.5 92h866q0 -45 -8 -95t-24 -91h-867zM547 340q0 66 46 111t112 45q59 0 92.5 -34t33.5 -95q0 -59 -44 -105.5t-113 -46.5q-61 0 -94 38t-33 87zM670 1081q0 66 46 111t111 45q59 0 93 -34t34 -95q0 -59 -44 -106.5t-113 -47.5q-61 0 -94 39 t-33 88z" />
<glyph unicode="&#xf8;" horiz-adv-x="1140" d="M131 -41l123 150q-74 100 -74 270q0 113 36 235.5t107.5 225t182 169t260.5 66.5q133 0 227 -59l56 69q25 6 69 7q45 0 76 -7l-119 -145q76 -104 76 -272q0 -115 -35 -237t-107.5 -223.5t-183 -167t-260.5 -65.5q-70 0 -127 15.5t-102 42.5l-23 -33q-10 -14 -23.5 -24.5 t-33.5 -16.5t-53 -6q-45 0 -72 6zM387 375q0 -43 10 -88l473 579q-49 43 -127 43q-96 0 -163.5 -53t-110.5 -133t-62.5 -174t-19.5 -174zM457 180q49 -43 127 -43q96 0 164.5 52.5t111.5 132t63.5 173t20.5 173.5q0 27 -4 49t-10 41z" />
<glyph unicode="&#xf9;" horiz-adv-x="1163" d="M209 244q0 31 4 68.5t10 72.5l117 666q23 4 52.5 6t51.5 2q23 0 49.5 -2t49.5 -6l-111 -631q-12 -66 -12 -117q0 -82 38 -116.5t101 -34.5q55 0 108.5 33.5t100.5 99t85 162t60 221.5l68 383q25 4 53.5 6t50.5 2q23 0 50.5 -2t48.5 -6l-109 -609q-23 -123 -36 -211 t-13 -153q0 -27 1 -42.5t3 -37.5q-23 -4 -48.5 -6t-47.5 -2q-20 0 -46 2t-46 6q-8 27 -8 94q0 39 5 74t11 67q-20 -43 -57 -89t-86.5 -82.5t-109.5 -61.5t-128 -25q-123 0 -191.5 66t-68.5 203zM489 1477q31 4 61.5 6t65.5 2t68.5 -2t64.5 -6l189 -260q-47 -8 -99 -9 q-31 0 -57.5 2t-48.5 7z" />
<glyph unicode="&#xfa;" horiz-adv-x="1163" d="M209 244q0 31 4 68.5t10 72.5l117 666q23 4 52.5 6t51.5 2q23 0 49.5 -2t49.5 -6l-111 -631q-12 -66 -12 -117q0 -82 38 -116.5t101 -34.5q55 0 108.5 33.5t100.5 99t85 162t60 221.5l68 383q25 4 53.5 6t50.5 2q23 0 50.5 -2t48.5 -6l-109 -609q-23 -123 -36 -211 t-13 -153q0 -27 1 -42.5t3 -37.5q-23 -4 -48.5 -6t-47.5 -2q-20 0 -46 2t-46 6q-8 27 -8 94q0 39 5 74t11 67q-20 -43 -57 -89t-86.5 -82.5t-109.5 -61.5t-128 -25q-123 0 -191.5 66t-68.5 203zM665 1217l199 260q33 4 65.5 6t67.5 2t65.5 -2t61.5 -6l-254 -260 q-23 -4 -50.5 -6.5t-58.5 -2.5q-23 0 -47 2.5t-49 6.5z" />
<glyph unicode="&#xfb;" horiz-adv-x="1163" d="M209 244q0 31 4 68.5t10 72.5l117 666q23 4 52.5 6t51.5 2q23 0 49.5 -2t49.5 -6l-111 -631q-12 -66 -12 -117q0 -82 38 -116.5t101 -34.5q55 0 108.5 33.5t100.5 99t85 162t60 221.5l68 383q25 4 53.5 6t50.5 2q23 0 50.5 -2t48.5 -6l-109 -609q-23 -123 -36 -211 t-13 -153q0 -27 1 -42.5t3 -37.5q-23 -4 -48.5 -6t-47.5 -2q-20 0 -46 2t-46 6q-8 27 -8 94q0 39 5 74t11 67q-20 -43 -57 -89t-86.5 -82.5t-109.5 -61.5t-128 -25q-123 0 -191.5 66t-68.5 203zM454 1217l254 260q25 4 59 6t62 2q23 0 57.5 -2t61.5 -8l152 -258 q-18 -4 -42 -6.5t-51 -2.5q-25 0 -53.5 2t-52.5 7l-84 161l-143 -161q-25 -4 -56.5 -6.5t-56.5 -2.5q-29 0 -58 2.5t-49 6.5z" />
<glyph unicode="&#xfc;" horiz-adv-x="1163" d="M209 244q0 31 4 68.5t10 72.5l117 666q23 4 52.5 6t51.5 2q23 0 49.5 -2t49.5 -6l-111 -631q-12 -66 -12 -117q0 -82 38 -116.5t101 -34.5q55 0 108.5 33.5t100.5 99t85 162t60 221.5l68 383q25 4 53.5 6t50.5 2q23 0 50.5 -2t48.5 -6l-109 -609q-23 -123 -36 -211 t-13 -153q0 -27 1 -42.5t3 -37.5q-23 -4 -48.5 -6t-47.5 -2q-20 0 -46 2t-46 6q-8 27 -8 94q0 39 5 74t11 67q-20 -43 -57 -89t-86.5 -82.5t-109.5 -61.5t-128 -25q-123 0 -191.5 66t-68.5 203zM475 1237q2 53 10.5 103.5t26.5 101.5q27 4 54.5 6t50.5 2t51 -2t53 -6 q-2 -53 -10 -103.5t-27 -101.5q-53 -6 -104 -6q-23 0 -51.5 1t-53.5 5zM893 1237q2 53 9 103.5t28 101.5q25 4 52.5 6t51.5 2q23 0 51.5 -2t53.5 -6q-4 -53 -12.5 -102.5t-24.5 -102.5q-53 -6 -104 -6q-23 0 -51.5 1t-53.5 5z" />
<glyph unicode="&#xfd;" horiz-adv-x="1024" d="M45 -481q2 45 12.5 86t32.5 71q18 -6 45 -11t49 -5q31 0 64 9t68.5 44t76.5 102.5t90 184.5q-16 -2 -34 -2h-37h-31q-16 0 -29 2l-68 524l-69 527q29 4 52.5 6t51.5 2q29 0 55.5 -2t53.5 -6l104 -949l117 258l93 215l76 181l63 155q12 33 18 64t6 47q0 10 -1 16t-1 13 q39 6 86 6h129q2 -8 2 -17v-16q0 -49 -20.5 -106.5t-44.5 -114.5l-198 -425l-236 -501q-57 -121 -110.5 -194.5t-106 -114.5t-105.5 -55.5t-115 -14.5q-71 1 -139 21zM551 1217l199 260q33 4 65.5 6t67.5 2t65.5 -2t61.5 -6l-254 -260q-23 -4 -50.5 -6.5t-58.5 -2.5 q-23 0 -47 2.5t-49 6.5z" />
<glyph unicode="&#xfe;" horiz-adv-x="1159" d="M76 -483l135 769l137 769q23 123 36 211t13 153q0 27 -1 43.5t-3 36.5q23 4 48.5 6t47.5 2q20 0 51 -1t54 -5q4 -16 6 -36.5t2 -55.5q0 -18 -6 -76.5t-18 -130.5l-60 -325q55 84 136 141t206 57q141 0 223 -99t82 -280q0 -145 -44 -275t-132 -229.5t-219 -158t-305 -58.5 q-31 0 -57.5 3.5t-49.5 7.5l-79 -469q-25 -4 -53.5 -5t-49.5 -1q-23 0 -50 1t-50 5zM391 158q23 -6 55.5 -9.5t63.5 -3.5q92 0 171 36t138.5 102.5t93 159t33.5 206.5q0 109 -44 178.5t-136 69.5q-51 0 -100.5 -21.5t-91.5 -70.5t-75.5 -128t-52.5 -194z" />
<glyph unicode="&#xff;" horiz-adv-x="1024" d="M45 -481q2 45 12.5 86t32.5 71q18 -6 45 -11t49 -5q31 0 64 9t68.5 44t76.5 102.5t90 184.5q-16 -2 -34 -2h-37h-31q-16 0 -29 2l-68 524l-69 527q29 4 52.5 6t51.5 2q29 0 55.5 -2t53.5 -6l104 -949l117 258l93 215l76 181l63 155q12 33 18 64t6 47q0 10 -1 16t-1 13 q39 6 86 6h129q2 -8 2 -17v-16q0 -49 -20.5 -106.5t-44.5 -114.5l-198 -425l-236 -501q-57 -121 -110.5 -194.5t-106 -114.5t-105.5 -55.5t-115 -14.5q-71 1 -139 21zM377 1237q2 53 10.5 103.5t26.5 101.5q27 4 54.5 6t50.5 2t51 -2t53 -6q-2 -53 -10 -103.5t-27 -101.5 q-53 -6 -104 -6q-23 0 -51.5 1t-53.5 5zM795 1237q2 53 9 103.5t28 101.5q25 4 52.5 6t51.5 2q23 0 51.5 -2t53.5 -6q-4 -53 -12.5 -102.5t-24.5 -102.5q-53 -6 -104 -6q-23 0 -51.5 1t-53.5 5z" />
<glyph unicode="&#x131;" horiz-adv-x="583" d="M213 0l156 889h-127q0 41 5 80t21 82h328l-184 -1051q-23 -4 -52.5 -5t-52.5 -1t-47 1t-47 5z" />
<glyph unicode="&#x152;" horiz-adv-x="1845" d="M227 518q0 188 47.5 364.5t141.5 313.5t233 219t322 82q68 0 132 -7t118 -17h778q0 -41 -7 -88.5t-26 -96.5h-567l-74 -420h455q0 -43 -8.5 -90t-24.5 -94h-455l-88 -502h584l-4 -49q0 -33 -8.5 -67.5t-18.5 -65.5h-803q-51 -10 -109.5 -17.5t-121.5 -7.5q-129 0 -222 39 t-153.5 111t-90.5 172t-30 221zM449 561q0 -201 69.5 -308.5t233.5 -107.5q82 0 141 10.5t100 28.5l195 1106q-47 16 -100.5 24.5t-122.5 8.5q-123 0 -219.5 -66.5t-163 -174t-100 -244t-33.5 -277.5z" />
<glyph unicode="&#x153;" horiz-adv-x="1751" d="M182 379q0 113 35 235.5t106.5 225t180 169t256.5 66.5q137 0 218 -67.5t109 -165.5q72 98 180.5 165.5t250.5 67.5q63 0 115.5 -18.5t89 -51t56 -77.5t19.5 -97q0 -90 -44 -156.5t-122 -113.5t-183.5 -77.5t-229.5 -49.5l-107 -16q4 -129 68.5 -203t195.5 -74 q82 0 157 19.5t132 42.5q20 -31 27.5 -74t7.5 -86q-31 -14 -75 -26.5t-92 -21.5t-97.5 -14.5t-89.5 -5.5q-84 0 -145.5 17.5t-105.5 48.5t-73 72t-45 90q-61 -92 -165.5 -160t-256.5 -68q-180 0 -276.5 104.5t-96.5 299.5zM389 375q0 -117 51.5 -177.5t145.5 -60.5 q96 0 164.5 52.5t111.5 132t63.5 173t20.5 173.5q0 117 -52 179t-149 62q-96 0 -163.5 -53t-110.5 -133t-62.5 -174t-19.5 -174zM1128 569l113 19q104 16 173 39.5t109 51.5t57 58.5t17 65.5q0 49 -33.5 80.5t-95.5 31.5q-66 0 -121 -28.5t-98 -76.5t-74 -110.5t-47 -130.5z " />
<glyph unicode="&#x178;" horiz-adv-x="1124" d="M272 1473q29 4 67 5t73 1q43 0 84 -6l196 -723l422 723q55 6 117 6q27 0 56.5 -1t51.5 -5l-579 -943l-92 -530q-55 -6 -109 -6q-57 0 -102 6l96 537zM500 1593q0 106 35 207q29 4 56.5 6t51.5 2q27 0 55.5 -2t51.5 -6q0 -106 -35 -207q-29 -4 -56.5 -6t-54.5 -2 q-25 0 -52 2t-52 6zM938 1593q0 102 35 207q27 4 55.5 6t53.5 2q27 0 54 -2t52 -6q-4 -104 -35 -207q-29 -4 -56.5 -6t-53.5 -2q-25 0 -53.5 2t-51.5 6z" />
<glyph unicode="&#x2c6;" horiz-adv-x="1021" d="M403 1217l254 260q25 4 59 6t62 2q23 0 57.5 -2t61.5 -8l152 -258q-18 -4 -42 -6.5t-51 -2.5q-25 0 -53.5 2t-52.5 7l-84 161l-143 -161q-25 -4 -56.5 -6.5t-56.5 -2.5q-29 0 -58 2.5t-49 6.5z" />
<glyph unicode="&#x2da;" horiz-adv-x="1028" d="M510 1395q0 49 16.5 93t47 77.5t73.5 54t96 20.5q92 0 145.5 -54t53.5 -148q0 -49 -17.5 -93.5t-49 -76t-74.5 -50t-94 -18.5q-92 0 -144.5 53.5t-52.5 141.5zM631 1407q0 -47 20.5 -74.5t65.5 -27.5q47 0 74.5 34.5t27.5 94.5q0 47 -19.5 74.5t-64.5 27.5 q-51 0 -77.5 -39t-26.5 -90z" />
<glyph unicode="&#x2dc;" horiz-adv-x="1024" d="M375 1352q39 41 93 71.5t120 30.5q43 0 77.5 -11t67.5 -24.5t67 -25t74 -11.5q35 0 64 10.5t70 45.5q16 -20 34.5 -52t22.5 -63q-39 -37 -94.5 -67.5t-120.5 -30.5q-43 0 -78 11t-67.5 25.5t-66.5 25.5t-71 11q-39 0 -66.5 -13t-66.5 -44q-18 20 -36.5 51t-22.5 60z" />
<glyph unicode="&#x2000;" horiz-adv-x="958" />
<glyph unicode="&#x2001;" horiz-adv-x="1916" />
<glyph unicode="&#x2002;" horiz-adv-x="958" />
<glyph unicode="&#x2003;" horiz-adv-x="1916" />
<glyph unicode="&#x2004;" horiz-adv-x="638" />
<glyph unicode="&#x2005;" horiz-adv-x="479" />
<glyph unicode="&#x2006;" horiz-adv-x="319" />
<glyph unicode="&#x2007;" horiz-adv-x="319" />
<glyph unicode="&#x2008;" horiz-adv-x="239" />
<glyph unicode="&#x2009;" horiz-adv-x="382" />
<glyph unicode="&#x200a;" horiz-adv-x="106" />
<glyph unicode="&#x2010;" horiz-adv-x="712" d="M199 496q4 96 32 188h517q0 -43 -9.5 -94t-23.5 -94h-516z" />
<glyph unicode="&#x2011;" horiz-adv-x="712" d="M199 496q4 96 32 188h517q0 -43 -9.5 -94t-23.5 -94h-516z" />
<glyph unicode="&#x2012;" horiz-adv-x="712" d="M199 496q4 96 32 188h517q0 -43 -9.5 -94t-23.5 -94h-516z" />
<glyph unicode="&#x2013;" horiz-adv-x="1024" d="M86 481q0 53 7 96.5t24 90.5h1024q0 -94 -33 -187h-1022z" />
<glyph unicode="&#x2014;" horiz-adv-x="2048" d="M80 481q0 96 31 187h2048q0 -94 -33 -187h-2046z" />
<glyph unicode="&#x2018;" horiz-adv-x="483" d="M289 1470q25 4 51.5 6.5t50.5 2.5q51 0 101 -6l122 -459q-41 -8 -94 -8q-25 0 -50.5 2t-51.5 6z" />
<glyph unicode="&#x2019;" horiz-adv-x="481" d="M260 1014l199 456q47 8 100 9q27 0 53.5 -2t49.5 -7l-203 -456q-29 -6 -54.5 -7t-48.5 -1q-27 0 -50 1t-46 7z" />
<glyph unicode="&#x201a;" horiz-adv-x="483" d="M23 -229l194 452q27 6 51.5 8t48.5 2q27 0 53.5 -2t49.5 -8l-201 -452q-27 -4 -52.5 -6.5t-47.5 -2.5q-55 1 -96 9z" />
<glyph unicode="&#x201c;" horiz-adv-x="868" d="M674 1470q25 4 51.5 6.5t50.5 2.5q51 0 101 -6l122 -459q-41 -8 -94 -8q-25 0 -50.5 2t-51.5 6zM289 1470q25 4 51.5 6.5t50.5 2.5q51 0 101 -6l122 -459q-41 -8 -94 -8q-25 0 -50.5 2t-51.5 6z" />
<glyph unicode="&#x201d;" horiz-adv-x="866" d="M645 1014l199 456q47 8 100 9q27 0 53.5 -2t49.5 -7l-203 -456q-29 -6 -54.5 -7t-48.5 -1q-27 0 -50 1t-46 7zM260 1014l199 456q47 8 100 9q27 0 53.5 -2t49.5 -7l-203 -456q-29 -6 -54.5 -7t-48.5 -1q-27 0 -50 1t-46 7z" />
<glyph unicode="&#x201e;" horiz-adv-x="868" d="M408 -229l194 452q27 6 51.5 8t48.5 2q27 0 53.5 -2t49.5 -8l-201 -452q-27 -4 -52.5 -6.5t-47.5 -2.5q-55 1 -96 9zM23 -229l194 452q27 6 51.5 8t48.5 2q27 0 53.5 -2t49.5 -8l-201 -452q-27 -4 -52.5 -6.5t-47.5 -2.5q-55 1 -96 9z" />
<glyph unicode="&#x2022;" horiz-adv-x="833" d="M270 713q0 53 20.5 101t56.5 84t84 56.5t104 20.5q53 0 101 -20.5t84 -56.5t56.5 -84t20.5 -101q0 -55 -20.5 -103.5t-56.5 -84.5t-84 -56t-101 -20q-55 0 -103.5 20t-84.5 56t-56.5 84.5t-20.5 103.5z" />
<glyph unicode="&#x2026;" horiz-adv-x="1488" d="M629 0q0 57 11 113.5t28 113.5q29 4 57.5 6.5t57.5 2.5t57.5 -2.5t54.5 -6.5q0 -59 -10 -113.5t-27 -113.5q-33 -4 -60.5 -6t-55.5 -2q-29 0 -56.5 2t-56.5 6zM1133 0q0 57 11 113.5t28 113.5q29 4 57.5 6.5t57.5 2.5t57.5 -2.5t54.5 -6.5q0 -59 -10 -113.5t-27 -113.5 q-33 -4 -60.5 -6t-55.5 -2q-29 0 -56.5 2t-56.5 6zM125 0q0 57 11 113.5t28 113.5q29 4 57.5 6.5t57.5 2.5t57.5 -2.5t54.5 -6.5q0 -59 -10 -113.5t-27 -113.5q-33 -4 -60.5 -6t-55.5 -2q-29 0 -56.5 2t-56.5 6z" />
<glyph unicode="&#x202f;" horiz-adv-x="382" />
<glyph unicode="&#x2039;" horiz-adv-x="712" d="M176 555l428 444q25 4 55.5 6.5t57.5 2.5q29 0 61.5 -2t61.5 -7l-432 -456l264 -451q-29 -4 -57.5 -6t-57.5 -2q-27 0 -52.5 2t-49.5 6z" />
<glyph unicode="&#x203a;" horiz-adv-x="755" d="M94 92l436 467l-268 440q29 4 57.5 6.5t57.5 2.5q27 0 52.5 -2t49.5 -7l279 -467l-430 -440q-25 -4 -54.5 -6t-58.5 -2t-60.5 2t-60.5 6z" />
<glyph unicode="&#x2044;" horiz-adv-x="450" d="M-451 2l1133 1448q25 4 55.5 6t57.5 2t55.5 -2t50.5 -6l-1134 -1448q-29 -4 -53.5 -6t-49.5 -2q-27 0 -58.5 2t-56.5 6z" />
<glyph unicode="&#x205f;" horiz-adv-x="479" />
<glyph unicode="&#x2070;" horiz-adv-x="921" d="M238 944q0 96 26.5 190.5t80.5 170t136 122t193 46.5q80 0 139 -26t97 -71t56.5 -108.5t18.5 -137.5q0 -102 -28.5 -196t-84 -168t-137.5 -118t-188 -44q-160 0 -234.5 96.5t-74.5 243.5zM428 950q0 -199 137 -198q61 0 104.5 35.5t71 91t41 120t13.5 121.5 q0 203 -142 203q-61 0 -103 -37t-69.5 -92t-40 -121t-12.5 -123z" />
<glyph unicode="&#x2074;" horiz-adv-x="921" d="M215 813l436 664q41 -6 79 -20.5t65 -33.5l-332 -499h201l30 168q18 4 36 5t40 1q41 0 76 -6l-29 -168h94q0 -31 -5 -69t-17 -69h-94l-29 -161q-16 -2 -32.5 -3t-37.5 -1q-23 0 -41 1t-41 5l27 159h-416z" />
<glyph unicode="&#x20ac;" d="M150 483q0 35 5 71t21 71h143q6 98 25 190h-135q0 33 5 70t19 71h150q39 113 102.5 207t150.5 163t198.5 106.5t248.5 37.5q104 0 183.5 -16t126.5 -39q-10 -49 -23.5 -86t-40.5 -84q-59 23 -116.5 33t-135.5 10q-92 0 -166.5 -24.5t-132 -68.5t-100.5 -104.5t-70 -134.5 h535q2 -10 2 -17v-15q0 -33 -7.5 -59.5t-17.5 -49.5h-555q-10 -47 -14 -94l-8 -96h544q0 -33 -6 -71t-20 -71h-514q14 -160 94 -241.5t244 -81.5q78 0 144.5 14t131.5 43q39 -74 45 -172q-41 -18 -88 -31.5t-95 -21.5t-93 -12.5t-82 -4.5q-260 0 -389 135.5t-140 372.5h-169 z" />
<glyph unicode="&#x2122;" horiz-adv-x="1691" d="M238 1370q0 35 6 78h618q4 -20 6 -37.5t2 -38.5q0 -18 -2 -36.5t-6 -37.5h-229v-669q-23 -4 -41.5 -6t-40.5 -2q-18 0 -37.5 2t-38.5 6v669h-231q-6 37 -6 72zM954 629l41 819q25 2 45.5 4t40.5 2q18 0 40 -2l46 -4l203 -449l201 449q23 2 42 4t40 2q20 0 42 -2l44 -4 l41 -819q-25 -4 -42.5 -6t-37.5 -2q-16 0 -35.5 1t-42.5 7l-31 522l-176 -367q-16 -4 -28.5 -5t-28.5 -1q-20 0 -60 6l-161 361l-27 -516q-41 -8 -76 -8q-39 0 -80 8z" />
<glyph unicode="&#x2212;" d="M281 629q0 49 8 94t24 92h867v-14q0 -47 -8.5 -90t-22.5 -82h-868z" />
<glyph unicode="&#xe000;" horiz-adv-x="1060" d="M0 1060h1060v-1060h-1060v1060z" />
<glyph unicode="&#xfb01;" horiz-adv-x="1179" d="M-193 -473q8 47 20.5 85t33.5 75q20 -8 45.5 -13.5t52.5 -5.5q55 0 93 13.5t65.5 51.5t49 108.5t42.5 185.5l153 862h-169q0 41 5 79t21 83h170l10 59q41 205 148.5 308.5t294.5 103.5q47 0 94 -6.5t89 -16.5t75 -21.5t51 -19.5q-10 -49 -24.5 -87t-36.5 -75 q-43 20 -112 39t-134 19q-96 0 -153.5 -52.5t-90.5 -195.5l-12 -55h606l-184 -1051q-25 -4 -53.5 -5t-51.5 -1t-48.5 1t-47.5 5l158 889h-406l-153 -877q-25 -141 -60 -239.5t-87 -158.5t-125 -87t-171 -27q-45 0 -86 7.5t-72 19.5z" />
<glyph unicode="&#xfb02;" horiz-adv-x="1263" d="M-193 -473q8 47 20.5 85t33.5 75q20 -8 45.5 -13.5t52.5 -5.5q49 0 86 12.5t66.5 49.5t52 102.5t41.5 173.5l157 883h-169q0 41 5 79t21 83h170l23 104q80 367 430 367q51 0 108.5 -7.5t110.5 -17.5t100 -23.5t82 -25.5q6 -41 6 -76q0 -47 -11 -121.5t-24 -142.5 l-147 -809q-6 -35 -6 -55q0 -33 9 -52.5t23.5 -28.5t32 -11t33.5 -2q18 0 42 4t40 8q18 -53 19 -127q0 -8 -1.5 -15.5t-1.5 -13.5q-31 -10 -74.5 -15t-86.5 -5q-53 0 -97.5 10t-76 36.5t-49 70.5t-17.5 110q0 39 8 82l17 84l118 647q16 92 26.5 164t16.5 131 q-41 14 -94 23.5t-104 9.5q-49 0 -87 -11.5t-68 -40t-51.5 -75.5t-37.5 -121l-12 -55h252q0 -43 -5.5 -80t-21.5 -82h-252l-158 -895q-25 -137 -60.5 -231.5t-88.5 -153t-124 -84t-165 -25.5q-45 0 -86 7.5t-72 19.5z" />
<glyph unicode="&#xfb03;" horiz-adv-x="1792" d="M-193 -473q8 47 20.5 85t33.5 75q20 -8 45.5 -13.5t52.5 -5.5q45 0 82 11.5t65.5 42t51 87t39.5 146.5l165 934h-169q0 41 5 79t21 83h170l10 59q41 205 139.5 308.5t276.5 103.5q51 0 93 -8.5t71 -20.5q-12 -51 -24.5 -87t-32.5 -75q-20 8 -46 15.5t-61 7.5 q-43 0 -76.5 -11.5t-58.5 -39t-44.5 -75.5t-35.5 -122l-12 -55h411l13 59q41 205 147.5 308.5t294.5 103.5q45 0 92 -6.5t89 -16.5t75 -21.5t51 -19.5q-8 -49 -23.5 -87t-37.5 -75q-41 20 -109.5 39t-136.5 19q-96 0 -156.5 -52.5t-87.5 -195.5l-10 -55h604l-184 -1051 q-23 -4 -52.5 -5t-51.5 -1q-23 0 -47.5 1t-47.5 5l156 889h-403l-156 -877q-25 -141 -60.5 -238.5t-88 -158.5t-124 -88t-170.5 -27q-90 0 -159 27q10 47 21.5 85t31.5 75q23 -8 48.5 -13.5t49.5 -5.5q45 0 83 11.5t66.5 42t51.5 87t39 146.5l166 934h-412l-182 -1016 q-18 -102 -55 -174t-89.5 -116t-120 -63.5t-149.5 -19.5q-45 0 -86 7.5t-72 19.5z" />
<glyph unicode="&#xfb04;" horiz-adv-x="1886" d="M-193 -473q8 47 20.5 85t33.5 75q20 -8 45.5 -13.5t52.5 -5.5q45 0 82 11.5t65.5 42t51 87t39.5 146.5l165 934h-169q0 41 5 79t21 83h170l23 110q74 360 403 361q51 0 93 -8.5t71 -20.5q-12 -51 -24.5 -87t-32.5 -75q-20 8 -46 15.5t-61 7.5q-43 0 -76.5 -11.5 t-60.5 -39t-46.5 -75.5t-31.5 -122q-4 -14 -6 -27.5t-6 -27.5h422l12 59q2 14 5 26.5t7 24.5q86 360 430 361q51 0 107.5 -7.5t110 -17.5t101.5 -23.5t83 -25.5q4 -20 4 -38v-38q0 -47 -10.5 -121.5t-22.5 -142.5l-151 -809q-6 -35 -7 -55q0 -33 9.5 -52.5t23.5 -28.5 t31.5 -11t34.5 -2q18 0 41.5 4t40.5 8q18 -53 18 -127q0 -8 -1 -15.5t-1 -13.5q-31 -10 -75 -15t-87 -5q-131 0 -182 60t-51 169q0 74 18 164q14 98 40 226l52 259q27 131 47.5 252t24.5 205q-41 14 -93 23.5t-106 9.5q-49 0 -88 -11.5t-68.5 -39t-51 -75.5t-35.5 -122 l-11 -55h250q0 -43 -5 -80t-21 -82h-252l-156 -889q-25 -139 -59.5 -235.5t-86 -155t-124 -84t-170.5 -25.5q-90 0 -160 27q10 47 21.5 85t31.5 75q20 -8 47 -13.5t52 -5.5q45 0 82.5 11.5t66.5 42t51.5 87t38.5 146.5l166 934h-422l-180 -1008q-18 -106 -55 -179 t-89.5 -118t-121 -64.5t-150.5 -19.5q-45 0 -86 7.5t-72 19.5z" />
<glyph horiz-adv-x="1024" d="M469 1737q39 41 93 71.5t120 30.5q43 0 78 -11t67.5 -25.5t66.5 -26t75 -11.5q35 0 62.5 11.5t68.5 46.5q16 -20 35.5 -53t23.5 -62q-41 -37 -95 -67.5t-120 -30.5q-43 0 -78 11t-67.5 24.5t-66.5 24.5t-70 11q-39 0 -67 -12t-67 -43q-18 20 -36.5 51t-22.5 60z" />
<glyph horiz-adv-x="1024" d="M422 1593q0 106 35 207q29 4 56.5 6t51.5 2q27 0 55.5 -2t51.5 -6q0 -106 -35 -207q-29 -4 -56.5 -6t-54.5 -2q-25 0 -52 2t-52 6zM860 1593q0 102 35 207q27 4 55.5 6t53.5 2q27 0 54 -2t52 -6q-4 -104 -35 -207q-29 -4 -56.5 -6t-53.5 -2q-25 0 -53.5 2t-51.5 6z" />
<glyph horiz-adv-x="1019" d="M420 1595l260 226q27 4 60.5 6t62.5 2q20 0 50 -2t56 -6l168 -226q-23 -4 -47 -6t-51 -2q-23 0 -50.5 2t-54.5 8l-92 123l-141 -125q-27 -4 -58.5 -6t-56.5 -2q-29 0 -56 2t-50 6z" />
<glyph horiz-adv-x="1024" d="M594 1593l250 224q25 4 58.5 6t68.5 2q37 0 75.5 -2t61.5 -6l-297 -226q-20 -4 -52 -5t-65 -1q-29 0 -56.5 2t-43.5 6z" />
<glyph horiz-adv-x="1024" d="M455 1825q25 4 64.5 6t78.5 2q35 0 67.5 -2t55.5 -6l186 -232q-16 -4 -44.5 -7t-57.5 -3q-33 0 -59.5 2t-45.5 6z" />
</font>
</defs>
</svg>
